Скачать через торрент музыку Ennio Morricone - Film music maestro бесплатно без регистрации torrent

Если у вас наблюдаются проблемы со скриншотами, переходом по ссылками, скачиванием торрентов - проблемы в блокировщике рекламы AdBlock. #хорошегоДня!


Статистика раздачи
Размер:  770 MB   |    Зарегистрирован:  6 лет 5 месяцев   |    .torrent скачан:  43 раза   |   
Раздают:  1  
   
Загрузка...
 
Автор Сообщение

Galfimbul

avatar Galfimbul


Ennio Morricone Film music maestro (3 CD - Film music masterpieces / Western themes / Gangster themes)

Жанр: soundtrack
Год выпуска диска: 2004
Производитель диска: Portugal
Аудио кодек: APE
Тип рипа: image+.cue
Битрейт аудио: lossless
Продолжительность: CD1 - 48:53, CD2 - 49:41, CD3 - 40:40
Трэклист:
CD 1

01. Cinema Paradiso (3:21)
02. Maturity (2:22)
03. Days Of Heaven (2:48)
04. Chi Mai (5:29)
05. 1900's Theme/Playing Love (2:50)
06. On Earth As It Is In Heaven (3:48)
07. End Titles (4:29)
08. Theme De Vatel (3:23)
09. Destiny (2:22)
10. Gabriel's Oboe (2:15)
11. Nostromo (4:23)
12. Orca (Finale) (4:15)
13. Finale Di Un 'Concerto Romantico Interrotto' (4:18)
14. Sharan Dream (2:51)

CD 2
01. The Good, The Bad And The Ugly (2:45)
02. Once Upon A Time In The West (3:51)
03. Theme From A Fistful Of Dollars (1:54)
04. Farewell To Cheyenne (2:47)
05. Titoli (3:04)
06. Sixty Seconds To What? (3:08)
07. My Name Is Nobody (3:21)
08. The Ecstasy Of Gold (3:40)
09. Love Theme From Guns For San Sebastian (3:04)
10. Un Tetto Di Stelle (4:58)
11. The Man With The Harmonica (3:43)
12. March Of The Beggars (5:04)
13. L' Arena (4:43)
14. Duck, You Sucker (3:38)

CD 3
01. The Ballad Of Hank McCain (2:05)
02. Ad Ogni Costo (2:59)
03. Main Titles Of The Sicilian Clan (3:43)
04. Main Titles Of Violent City (2:29)
05. The Iron Mayor (2:35)
06. Goodbye Palermo (3:45)
07. Deborah's Theme (4:23)
08. Far Memories Of Sicily (2:31)
09. Al Capone (2:58)
10. End Titles (3:14)
11. To Come Back To Palermo (4:26)
12. State Of Grace (2:25)
13. Act Of Faith (3:07)
Exact Audio Copy V0.99 prebeta 1 from 25. May 2007

Отчёт EAC об извлечении, выполненном 19. февраля 2009, 23:04

Ennio Morricone / Selected Works CD 1: Film Music Masterpieces

Дисковод: HL-DT-STDVDRAM GSA-T10N Adapter: 0 ID: 1

Режим чтения : Достоверность
Использование точного потока : Да
Отключение кэша аудио : Да
Использование указателей C2 : Нет

Коррекция смещения при чтении : 667
Способность читать области Lead-in и Lead-out : Нет
Заполнение пропущенных сэмплов тишиной : Да
Удаление блоков с тишиной в начале и конце : Нет
Интерфейс : Встроенный Win32-интерфейс для Win NT/2000

Выходной формат : Внутренние WAV-операции
Формат сэмплов : 44.100 Гц; 16 бит; стерео

TOC извлечённого CD

Трек | Старт | Длительность | Начальный сектор | Конечный сектор
---------------------------------------------------------------------
1 | 0:00.00 | 3:21.01 | 0 | 15075
2 | 3:21.01 | 2:21.74 | 15076 | 25724
3 | 5:43.00 | 2:48.31 | 25725 | 38355
4 | 8:31.31 | 5:28.59 | 38356 | 63014
5 | 14:00.15 | 2:49.62 | 63015 | 75751
6 | 16:50.02 | 3:47.55 | 75752 | 92831
7 | 20:37.57 | 4:28.50 | 92832 | 112981
8 | 25:06.32 | 3:22.41 | 112982 | 128172
9 | 28:28.73 | 2:22.29 | 128173 | 138851
10 | 30:51.27 | 2:14.60 | 138852 | 148961
11 | 33:06.12 | 4:22.74 | 148962 | 168685
12 | 37:29.11 | 4:14.46 | 168686 | 187781
13 | 41:43.57 | 4:17.56 | 187782 | 207112
14 | 46:01.38 | 2:51.23 | 207113 | 219960

Характеристики диапазона извлечения и сообщения об ошибках

Выбранный диапазон

Имя файла D:\morricone-3cd_[http://рутраскер]\1\Ennio Morricone - Selected Works CD 1 Film Music Masterpieces.wav

Пиковый уровень 94.4 %
Качество диапазона 99.9 %
CRC копии 90A7E7E1
Копирование... OK

AccurateRip: сводка

Трек 1 нет в базе данных
Трек 2 нет в базе данных
Трек 3 нет в базе данных
Трек 4 нет в базе данных
Трек 5 нет в базе данных
Трек 6 нет в базе данных
Трек 7 нет в базе данных
Трек 8 нет в базе данных
Трек 9 нет в базе данных
Трек 10 нет в базе данных
Трек 11 нет в базе данных
Трек 12 нет в базе данных
Трек 13 нет в базе данных
Трек 14 нет в базе данных

Ошибок не произошло

Конец отчёта
Exact Audio Copy V0.99 prebeta 1 from 25. May 2007

Отчёт EAC об извлечении, выполненном 23. февраля 2009, 13:48

Ennio Morricone / Selected Works CD 2: Western Themes

Дисковод: HL-DT-STDVDRAM GSA-T10N Adapter: 0 ID: 1

Режим чтения : Достоверность
Использование точного потока : Да
Отключение кэша аудио : Да
Использование указателей C2 : Нет

Коррекция смещения при чтении : 667
Способность читать области Lead-in и Lead-out : Нет
Заполнение пропущенных сэмплов тишиной : Да
Удаление блоков с тишиной в начале и конце : Нет
Интерфейс : Встроенный Win32-интерфейс для Win NT/2000

Выходной формат : Внутренние WAV-операции
Формат сэмплов : 44.100 Гц; 16 бит; стерео

TOC извлечённого CD

Трек | Старт | Длительность | Начальный сектор | Конечный сектор
---------------------------------------------------------------------
1 | 0:00.00 | 2:45.13 | 0 | 12387
2 | 2:45.13 | 3:51.20 | 12388 | 29732
3 | 6:36.33 | 1:54.36 | 29733 | 38318
4 | 8:30.69 | 2:46.43 | 38319 | 50811
5 | 11:17.37 | 3:04.05 | 50812 | 64616
6 | 14:21.42 | 3:07.50 | 64617 | 78691
7 | 17:29.17 | 3:21.06 | 78692 | 93772
8 | 20:50.23 | 3:40.13 | 93773 | 110285
9 | 24:30.36 | 3:03.58 | 110286 | 124068
10 | 27:34.19 | 4:58.20 | 124069 | 146438
11 | 32:32.39 | 3:43.10 | 146439 | 163173
12 | 36:15.49 | 5:04.32 | 163174 | 186005
13 | 41:20.06 | 4:43.09 | 186006 | 207239
14 | 46:03.15 | 3:37.63 | 207240 | 223577

Характеристики диапазона извлечения и сообщения об ошибках

Выбранный диапазон

Имя файла D:\morricone-3cd_[http://рутраскер]\2\Ennio Morricone - Selected Works CD 2 Western Themes.wav

Пиковый уровень 94.4 %
Качество диапазона 100.0 %
CRC копии E954DABF
Копирование... OK

AccurateRip: сводка

Трек 1 нет в базе данных
Трек 2 нет в базе данных
Трек 3 нет в базе данных
Трек 4 нет в базе данных
Трек 5 нет в базе данных
Трек 6 нет в базе данных
Трек 7 нет в базе данных
Трек 8 нет в базе данных
Трек 9 нет в базе данных
Трек 10 нет в базе данных
Трек 11 нет в базе данных
Трек 12 нет в базе данных
Трек 13 нет в базе данных
Трек 14 нет в базе данных

Ошибок не произошло

Конец отчёта
Exact Audio Copy V0.99 prebeta 1 from 25. May 2007

Отчёт EAC об извлечении, выполненном 23. февраля 2009, 14:18

Ennio Morricone / Selected Works CD 2: Gangster Themes

Дисковод: HL-DT-STDVDRAM GSA-T10N Adapter: 0 ID: 1

Режим чтения : Достоверность
Использование точного потока : Да
Отключение кэша аудио : Да
Использование указателей C2 : Нет

Коррекция смещения при чтении : 667
Способность читать области Lead-in и Lead-out : Нет
Заполнение пропущенных сэмплов тишиной : Да
Удаление блоков с тишиной в начале и конце : Нет
Интерфейс : Встроенный Win32-интерфейс для Win NT/2000

Выходной формат : Внутренние WAV-операции
Формат сэмплов : 44.100 Гц; 16 бит; стерео

TOC извлечённого CD

Трек | Старт | Длительность | Начальный сектор | Конечный сектор
---------------------------------------------------------------------
1 | 0:00.00 | 2:04.54 | 0 | 9353
2 | 2:04.54 | 2:58.51 | 9354 | 22754
3 | 5:03.30 | 3:43.22 | 22755 | 39501
4 | 8:46.52 | 2:29.04 | 39502 | 50680
5 | 11:15.56 | 2:35.26 | 50681 | 62331
6 | 13:51.07 | 3:45.29 | 62332 | 79235
7 | 17:36.36 | 4:23.02 | 79236 | 98962
8 | 21:59.38 | 2:30.60 | 98963 | 110272
9 | 24:30.23 | 2:57.38 | 110273 | 123585
10 | 27:27.61 | 3:14.24 | 123586 | 138159
11 | 30:42.10 | 4:25.59 | 138160 | 158093
12 | 35:07.69 | 2:25.14 | 158094 | 168982
13 | 37:33.08 | 3:07.26 | 168983 | 183033

Характеристики диапазона извлечения и сообщения об ошибках

Выбранный диапазон

Имя файла D:\morricone-3cd_[http://рутраскер]\3\Ennio Morricone - Selected Works CD 2 Gangster Themes.wav

Пиковый уровень 94.4 %
Качество диапазона 100.0 %
CRC копии 9291D4CD
Копирование... OK

AccurateRip: сводка

Трек 1 нет в базе данных
Трек 2 нет в базе данных
Трек 3 нет в базе данных
Трек 4 нет в базе данных
Трек 5 нет в базе данных
Трек 6 нет в базе данных
Трек 7 нет в базе данных
Трек 8 нет в базе данных
Трек 9 нет в базе данных
Трек 10 нет в базе данных
Трек 11 нет в базе данных
Трек 12 нет в базе данных
Трек 13 нет в базе данных

Ошибок не произошло

Конец отчёта


Трекер:  [ 07-Июл-2011 23:14 ]

  

Скачать .torrent

Размер .torrent файла 16 KB


Размер: 770 MB
Хэш (hash) релиза: c0d41706c77d34f6ed0486ebae9bf74141c284f6

Еще никто не оставлял запись к записи скачать торрент Ennio Morricone - Film music maestro . Будь первым!

!Обратная связь