Скачать через торрент музыку Electric Dreams бесплатно без регистрации torrent

Если у вас наблюдаются проблемы со скриншотами, переходом по ссылками, скачиванием торрентов - проблемы в блокировщике рекламы AdBlock. #хорошегоДня!


Статистика раздачи
Размер:  218 MB   |    Зарегистрирован:  6 лет 2 месяца   |    .torrent скачан:  39 раз   |   
Раздают:  1  
   
Загрузка...
 
Автор Сообщение

Galfimbul

avatar Galfimbul


O.S.T. - Electric Dreams (feat. Jeff Lynne (ELO) & Giorgio Moroder) - 1984

Жанр: O.S.T.
Год выпуска диска: 1984
Производитель диска: UK
Аудио кодек: FLAC
Тип рипа: tracks+.cue
Битрейт аудио: lossless
Продолжительность: 32.30 min.
Трэклист:


01. Electric Dreams (P.P.Arnold) - 4.23
02. Video (Jeff Lynne) - 3.26
03. The Dream (Culture Club) - 2.31
04. The Duel (Giorgio Moroder) - 3.49
05. Now You're Mine (Helen Terry) - 4.05
06. Love Is Love (Culture Club) - 3.52
07. Chase Runner (Heaven 17) - 2.59
08. Let It Run (Jeff Lynne) - 3.22
09. Madeline's Theme (Giorgio Moroder) - 2.18
10. Together In Electric Dreams (Giorgio Moroder, Philip Oaken) - 3.53

Доп. информация: Саундтрек к фильму 1984 года "Электрические мечты" включает песни Дж.Линна и Дж. Мородера. Рип с оригинала, все сканы вложены.
Exact Audio Copy V0.99 prebeta 4 from 23. January 2008

Отчёт EAC об извлечении, выполненном 25. февраля 2009, 23:20

Various / Electric Dreams

Дисковод: HL-DT-STDVDRAM GSA-E40N Adapter: 1 ID: 0

Режим чтения : Достоверность
Использование точного потока : Да
Отключение кэша аудио : Да
Использование указателей C2 : Нет

Коррекция смещения при чтении : 667
Способность читать области Lead-in и Lead-out : Нет
Заполнение пропущенных сэмплов тишиной : Да
Удаление блоков с тишиной в начале и конце : Нет
При вычислениях CRC использовались нулевые сэмплы : Да
Интерфейс : Установленный внешний ASPI-интерфейс
Обработка зазоров : Не обнаружено, добавлено к предыдущему треку

Выходной формат : Пользовательский кодировщик
Выбранный битрейт : 768 kBit/s
Качество : Высокий
Добавление ID3-тэга : Нет
Утилита сжатия : C:\Program Files\Exact Audio Copy\FLAC\FLAC.EXE
Дополнительные параметры : -6 -V -T "ARTIST=%a" -T "TITLE=%t" -T "ALBUM=%g" -T "DATE=%y" -T "TRACKNUMBER=%n" -T "GENRE=%m" -T "COMMENT=%e" %s -o %d

TOC извлечённого CD

Трек | Старт | Длительность | Начальный сектор | Конечный сектор
---------------------------------------------------------------------
1 | 0:00.32 | 4:23.28 | 32 | 19784
2 | 4:23.60 | 3:26.35 | 19785 | 35269
3 | 7:50.20 | 2:31.42 | 35270 | 46636
4 | 10:21.62 | 3:49.10 | 46637 | 63821
5 | 14:10.72 | 4:05.15 | 63822 | 82211
6 | 18:16.12 | 3:52.40 | 82212 | 99651
7 | 22:08.52 | 2:59.38 | 99652 | 113114
8 | 25:08.15 | 3:22.17 | 113115 | 128281
9 | 28:30.32 | 2:18.38 | 128282 | 138669
10 | 30:48.70 | 3:53.15 | 138670 | 156159

Трек 1

Имя файла H:\Торрентс.ру\Electric Dreams - O.S.T\01 - P. P. Arnold - Electric Dreams.wav

Пиковый уровень 83.3 %
Качество трека 100.0 %
CRC теста E2E052AD
CRC копии E2E052AD
Копирование... OK

Трек 2

Имя файла H:\Торрентс.ру\Electric Dreams - O.S.T\02 - Jeff Lynne - Video.wav

Пиковый уровень 92.6 %
Качество трека 100.0 %
CRC теста FEC8792B
CRC копии FEC8792B
Копирование... OK

Трек 3

Имя файла H:\Торрентс.ру\Electric Dreams - O.S.T\03 - Culture Club - The Dream.wav

Пиковый уровень 67.2 %
Качество трека 100.0 %
CRC теста 75AFFC88
CRC копии 75AFFC88
Копирование... OK

Трек 4

Имя файла H:\Торрентс.ру\Electric Dreams - O.S.T\04 - Giorgio Moroder - The Duel.wav

Пиковый уровень 100.0 %
Качество трека 99.9 %
CRC теста D59EDCDF
CRC копии D59EDCDF
Копирование... OK

Трек 5

Имя файла H:\Торрентс.ру\Electric Dreams - O.S.T\05 - Helen Terry - Now You're Mine.wav

Пиковый уровень 100.0 %
Качество трека 100.0 %
CRC теста 100A9DE7
CRC копии 100A9DE7
Копирование... OK

Трек 6

Имя файла H:\Торрентс.ру\Electric Dreams - O.S.T\06 - Culture Club - Love is Love.wav

Пиковый уровень 100.0 %
Качество трека 100.0 %
CRC теста 97D9A3AC
CRC копии 97D9A3AC
Копирование... OK

Трек 7

Имя файла H:\Торрентс.ру\Electric Dreams - O.S.T\07 - Heaven 17 - Chase Runner.wav

Пиковый уровень 96.2 %
Качество трека 100.0 %
CRC теста D905D816
CRC копии D905D816
Копирование... OK

Трек 8

Имя файла H:\Торрентс.ру\Electric Dreams - O.S.T\08 - Jeff Lynne - Let It Run.wav

Пиковый уровень 84.4 %
Качество трека 99.9 %
CRC теста E91F3A2F
CRC копии E91F3A2F
Копирование... OK

Трек 9

Имя файла H:\Торрентс.ру\Electric Dreams - O.S.T\09 - Giorgio Moroder - Madeline's Theme.wav

Пиковый уровень 70.1 %
Качество трека 100.0 %
CRC теста AB4AC8E0
CRC копии AB4AC8E0
Копирование... OK

Трек 10

Имя файла H:\Торрентс.ру\Electric Dreams - O.S.T\10 - Giorgio Moroder with Philip Oakey - Together In Electric Dreams.wav

Пиковый уровень 100.0 %
Качество трека 100.0 %
CRC теста 89D43180
CRC копии 89D43180
Копирование... OK

Ошибок не произошло

Конец отчёта


Трекер:  [ 07-Июл-2011 23:15 ]

  

Скачать .torrent

Размер .torrent файла 18 KB


Размер: 218 MB
Хэш (hash) релиза: 07b81298c84dff4564a56cb24f45b870bbc1a372

Еще никто не оставлял запись к записи скачать торрент Electric Dreams . Будь первым!

!Обратная связь