Скачать через торрент музыку Tabarly бесплатно без регистрации torrent

Если у вас наблюдаются проблемы со скриншотами, переходом по ссылками, скачиванием торрентов - проблемы в блокировщике рекламы AdBlock. #хорошегоДня!


Статистика раздачи
Размер:  141 MB   |    Зарегистрирован:  6 лет 2 месяца   |    .torrent скачан:  32 раза   |   
Раздают:  1  
   
Загрузка...
 
Автор Сообщение

Galfimbul

avatar Galfimbul


Tabarly (by Yann Tiersen)

Жанр: Score
Год выпуска диска: 2008
Производитель диска: France
Аудио кодек: APE
Тип рипа: image+.cue
Битрейт аудио: lossless
Продолжительность: 33 min
Трэклист:
1. Tabarly (3:05)
2. Naval (3:38)
3. .II (1:14)
4. Au Dessous Du Volcan (3:33)
5. .IV (0:55)
6. La Longue Route (2:14)
7. 1976 (1:12)
8. Yello (2:19)
9. Point Zero (2:38)
10. La Corde (1:18)
11. 8mm (2:45)
12. Point Mort (3:37)
13. Derni*Re (1:32)
14. Atlantique Nord (2:38)
15. Eire (1:07)
Exact Audio Copy V0.99 prebeta 4 from 23. January 2008

Отчёт EAC об извлечении, выполненном 15. ноября 2008, 23:56

Yann Tiersen / Tabarly

Дисковод: TEAC CD-W552G Adapter: 2 ID: 1

Режим чтения : Достоверность
Использование точного потока : Да
Отключение кэша аудио : Да
Использование указателей C2 : Нет

Коррекция смещения при чтении : 6
Способность читать области Lead-in и Lead-out : Нет
Заполнение пропущенных сэмплов тишиной : Да
Удаление блоков с тишиной в начале и конце : Нет
При вычислениях CRC использовались нулевые сэмплы : Нет
Интерфейс : Установленный внешний ASPI-интерфейс

Выходной формат : Внутренние WAV-операции
Формат сэмплов : 44.100 Гц; 16 бит; стерео

TOC извлечённого CD

Трек | Старт | Длительность | Начальный сектор | Конечный сектор
---------------------------------------------------------------------
1 | 0:00.00 | 3:05.05 | 0 | 13879
2 | 3:05.05 | 3:38.08 | 13880 | 30237
3 | 6:43.13 | 1:14.65 | 30238 | 35852
4 | 7:58.03 | 3:33.72 | 35853 | 51899
5 | 11:32.00 | 0:55.63 | 51900 | 56087
6 | 12:27.63 | 2:14.35 | 56088 | 66172
7 | 14:42.23 | 1:12.50 | 66173 | 71622
8 | 15:54.73 | 2:19.45 | 71623 | 82092
9 | 18:14.43 | 2:38.20 | 82093 | 93962
10 | 20:52.63 | 1:18.37 | 93963 | 99849
11 | 22:11.25 | 2:45.30 | 99850 | 112254
12 | 24:56.55 | 3:37.53 | 112255 | 128582
13 | 28:34.33 | 1:32.07 | 128583 | 135489
14 | 30:06.40 | 2:38.03 | 135490 | 147342
15 | 32:44.43 | 1:07.10 | 147343 | 152377

Характеристики диапазона извлечения и сообщения об ошибках

Выбранный диапазон

Имя файла W:\Музыка\Разное\Lossless\PART 2\Yann Tiersen - Tabarly\Yann Tiersen - Tabarly.wav

Пиковый уровень 100.0 %
Качество диапазона 100.0 %
CRC копии 1125BE74
Копирование... OK

Ошибок не произошло

Конец отчёта


Трекер:  [ 07-Июл-2011 23:15 ]

  

Скачать .torrent

Размер .torrent файла 11 KB


Размер: 141 MB
Хэш (hash) релиза: c1255c1f7a039b733efc711f66ac26de8c10ff43

Торренты, похожие на Tabarly скачать торрент

Форум Название Автор Размер S L Добавлен
Саундтреки к фильмам и мультфильмам (mp3) ·· (Score) Yann Tiersen - Tabarly - 2008, MP3, 320 kbps Galfimbul 8145085978 MB 0 0 1292265331

21:35

13-Дек-10

Еще никто не оставлял запись к записи скачать торрент Tabarly . Будь первым!

!Обратная связь