Скачать через торрент музыку Blade Блейд бесплатно без регистрации torrent

Если у вас наблюдаются проблемы со скриншотами, переходом по ссылками, скачиванием торрентов - проблемы в блокировщике рекламы AdBlock. #хорошегоДня!


Статистика раздачи
Размер:  475 MB   |    Зарегистрирован:  6 лет 2 месяца   |    .torrent скачан:  64 раза   |   
Раздают:  1  
   
Загрузка...
 
Автор Сообщение

Galfimbul

avatar Galfimbul


Blade / Блейд

Жанр: Soundtrack / Techno / Big Beat / Acid / Hip Hop
Год выпуска диска: 1998
Производитель диска: Epic (EPC 492884 2), EU
Аудио кодек: FLAC
Тип рипа: tracks+.cue
Битрейт аудио: lossless
Продолжительность: 01:13:52

Трэклист:
01. Mystikal - The Edge Of The Blade
02. Gang Starr Feat. M.O.P. - 1\2 & 1\2
03. Krs-One Feat. Channel Live - Blade
04. Down 2 Earth Feat. Rome - Fightin' A War
05. P.A. - Reservations
06. Wolfpak - Gangsta Bounce
07. Kasino - Things Ain't The Same
08. Bounty Killer Feat. Mobb Deep & Rappin' Noyd - Deadly Zone
09. Majesty Feat. Bizzy Bone - Blade 4 Glory
10. MANTRONIK VS. EPMD - STRICTLE BUSINESS (Mantronik MBA Radio Edit)
11. Roger S. Feat. Soulson - Wrek Tha Discotek
12. NEW ORDER - CONFUSION (Pump Panel Reconstruction Mix)
13. Expansion Union - Playing With Lightning
14. Dj Krush - Dig This Vibe
15. Junkie Xl - Dealing With The Roster
 
Exact Audio Copy V0.99 prebeta 4 from 23. January 2008

Отчёт EAC об извлечении, выполненном 28. октября 2009, 21:29

Various / Music From And Inspired By The Motion Picture Blade

Дисковод: TSSTcorpCD/DVDW TS-L632D Adapter: 0 ID: 0

Режим чтения : ДостоверностьИспользование точного потока : ДаОтключение кэша аудио : ДаИспользование указателей C2 : Нет

Коррекция смещения при чтении : 6Способность читать области Lead-in и Lead-out : НетЗаполнение пропущенных сэмплов тишиной : ДаУдаление блоков с тишиной в начале и конце : НетПри вычислениях CRC использовались нулевые сэмплы : ДаИнтерфейс : Встроенный Win32-интерфейс для Win NT/2000Обработка зазоров : Добавлено к предыдущему треку

Выходной формат : Пользовательский кодировщикВыбранный битрейт : 768 kBit/sКачество : ВысокийДобавление ID3-тэга : НетУтилита сжатия : C:\Program Files\Exact Audio Copy\FLAC\FLAC.EXEДополнительные параметры : -6 -V -T "ARTIST=%a" -T "TITLE=%t" -T "ALBUM=%g" -T "DATE=%y" -T "TRACKNUMBER=%n" -T "GENRE=%m" -T "COMMENT=%e" %s -o %d

TOC извлечённого CD

Трек | Старт | Длительность | Начальный сектор | Конечный сектор --------------------------------------------------------------------- 1 | 0:00.00 | 4:11.42 | 0 | 18866 2 | 4:11.42 | 4:17.20 | 18867 | 38161 3 | 8:28.62 | 3:10.65 | 38162 | 52476 4 | 11:39.52 | 4:01.10 | 52477 | 70561 5 | 15:40.62 | 4:26.00 | 70562 | 90511 6 | 20:06.62 | 5:27.13 | 90512 | 115049 7 | 25:34.00 | 4:33.17 | 115050 | 135541 8 | 30:07.17 | 5:00.20 | 135542 | 158061 9 | 35:07.37 | 3:45.08 | 158062 | 174944 10 | 38:52.45 | 3:35.47 | 174945 | 191116 11 | 42:28.17 | 6:13.33 | 191117 | 219124 12 | 48:41.50 | 10:12.05 | 219125 | 265029 13 | 58:53.55 | 4:31.32 | 265030 | 285386 14 | 63:25.12 | 4:54.00 | 285387 | 307436 15 | 68:19.12 | 5:33.30 | 307437 | 332441

Трек 1

Имя файла D:\Torrents\Music Torrents\VA Blade - Music From And Inspired By The Motion Picture 1998 (EPC 492884 2)\01 - Mystikal - The Edge Of The Blade.wav

Длина предзазора 0:00:02.00

Пиковый уровень 98.5 % Качество трека 100.0 % CRC теста 7DC2B0EF CRC копии 7DC2B0EF Точное извлечение (достоверность 9) [31212344] Копирование... OK

Трек 2

Имя файла D:\Torrents\Music Torrents\VA Blade - Music From And Inspired By The Motion Picture 1998 (EPC 492884 2)\02 - Gang Starr Feat. M.O.P. - 1-2 & 1-2.wav

Пиковый уровень 98.5 % Качество трека 100.0 % CRC теста 6790649A CRC копии 6790649A Точное извлечение (достоверность 9) [6C2085C4] Копирование... OK

Трек 3

Имя файла D:\Torrents\Music Torrents\VA Blade - Music From And Inspired By The Motion Picture 1998 (EPC 492884 2)\03 - Krs-One Feat. Channel Live - Blade.wav

Пиковый уровень 98.3 % Качество трека 100.0 % CRC теста 1CD49DEC CRC копии 1CD49DEC Точное извлечение (достоверность 9) [53C28799] Копирование... OK

Трек 4

Имя файла D:\Torrents\Music Torrents\VA Blade - Music From And Inspired By The Motion Picture 1998 (EPC 492884 2)\04 - Down 2 Earth Feat. Rome - Fightin' A War.wav

Пиковый уровень 98.4 % Качество трека 100.0 % CRC теста DE245DC8 CRC копии DE245DC8 Точное извлечение (достоверность 9) [017BE606] Копирование... OK

Трек 5

Имя файла D:\Torrents\Music Torrents\VA Blade - Music From And Inspired By The Motion Picture 1998 (EPC 492884 2)\05 - P.A. - Reservations.wav

Пиковый уровень 82.9 % Качество трека 100.0 % CRC теста CE514627 CRC копии CE514627 Точное извлечение (достоверность 9) [3F1F7DE9] Копирование... OK

Трек 6

Имя файла D:\Torrents\Music Torrents\VA Blade - Music From And Inspired By The Motion Picture 1998 (EPC 492884 2)\06 - Wolfpak - Gangsta Bounce.wav

Пиковый уровень 98.4 % Качество трека 100.0 % CRC теста 3B230684 CRC копии 3B230684 Точное извлечение (достоверность 9) [A5674E27] Копирование... OK

Трек 7

Имя файла D:\Torrents\Music Torrents\VA Blade - Music From And Inspired By The Motion Picture 1998 (EPC 492884 2)\07 - Kasino - Things Ain't The Same.wav

Пиковый уровень 98.4 % Качество трека 100.0 % CRC теста D4A54838 CRC копии D4A54838 Точное извлечение (достоверность 9) [218CED06] Копирование... OK

Трек 8

Имя файла D:\Torrents\Music Torrents\VA Blade - Music From And Inspired By The Motion Picture 1998 (EPC 492884 2)\08 - Bounty Killer Feat. Mobb Deep & Rappin' Noyd - Deadly Zone.wav

Пиковый уровень 98.4 % Качество трека 100.0 % CRC теста A3756ABF CRC копии A3756ABF Точное извлечение (достоверность 9) [467131CA] Копирование... OK

Трек 9

Имя файла D:\Torrents\Music Torrents\VA Blade - Music From And Inspired By The Motion Picture 1998 (EPC 492884 2)\09 - Majesty Feat. Bizzy Bone - Blade 4 Glory.wav

Пиковый уровень 93.3 % Качество трека 99.9 % CRC теста 0E23128D CRC копии 0E23128D Точное извлечение (достоверность 9) [534FFCCA] Копирование... OK

Трек 10

Имя файла D:\Torrents\Music Torrents\VA Blade - Music From And Inspired By The Motion Picture 1998 (EPC 492884 2)\10 - MANTRONIK VS. EPMD - STRICTLE BUSINESS (Mantronik MBA Radio Edit).wav

Пиковый уровень 89.3 % Качество трека 100.0 % CRC теста 228FBA8F CRC копии 228FBA8F Точное извлечение (достоверность 9) [EBF4C6B1] Копирование... OK

Трек 11

Имя файла D:\Torrents\Music Torrents\VA Blade - Music From And Inspired By The Motion Picture 1998 (EPC 492884 2)\11 - Roger S. Feat. Soulson - Wrek Tha Discotek.wav

Пиковый уровень 98.3 % Качество трека 100.0 % CRC теста 395CF5EA CRC копии 395CF5EA Точное извлечение (достоверность 9) [E740B5FA] Копирование... OK

Трек 12

Имя файла D:\Torrents\Music Torrents\VA Blade - Music From And Inspired By The Motion Picture 1998 (EPC 492884 2)\12 - NEW ORDER - CONFUSION (Pump Panel Reconstruction Mix).wav

Пиковый уровень 59.3 % Качество трека 100.0 % CRC теста 4BC785F7 CRC копии 4BC785F7 Точное извлечение (достоверность 10) [EFCE8F28] Копирование... OK

Трек 13

Имя файла D:\Torrents\Music Torrents\VA Blade - Music From And Inspired By The Motion Picture 1998 (EPC 492884 2)\13 - Expansion Union - Playing With Lightning.wav

Пиковый уровень 98.4 % Качество трека 100.0 % CRC теста DAE61F48 CRC копии DAE61F48 Точное извлечение (достоверность 9) [AF502110] Копирование... OK

Трек 14

Имя файла D:\Torrents\Music Torrents\VA Blade - Music From And Inspired By The Motion Picture 1998 (EPC 492884 2)\14 - Dj Krush - Dig This Vibe.wav

Пиковый уровень 98.1 % Качество трека 100.0 % CRC теста EF952E69 CRC копии EF952E69 Точное извлечение (достоверность 9) [7F9804B7] Копирование... OK

Трек 15

Имя файла D:\Torrents\Music Torrents\VA Blade - Music From And Inspired By The Motion Picture 1998 (EPC 492884 2)\15 - Junkie Xl - Dealing With The Roster.wav

Пиковый уровень 66.8 % Качество трека 99.9 % CRC теста 36AE3482 CRC копии 36AE3482 Точное извлечение (достоверность 9) [FCE57132] Копирование... OK

Все треки извлечены точно

Ошибок не произошло

Конец отчёта


Трекер:  [ 07-Июл-2011 23:16 ]

  

Скачать .torrent

Размер .torrent файла 20 KB


Размер: 475 MB
Хэш (hash) релиза: c1eb55718c5fe40a970233cfe5550a96452766ee

Торренты, похожие на Blade Блейд скачать торрент

Форум Название Автор Размер S L Добавлен
Саундтреки к фильмам и мультфильмам (mp3) ·· (Score) Blade / Блейд (Complete Original Recording Sessions) (Mark Isham) - 1998, MP3, 320 kbps Galfimbul 180710501172 MB 0 0 1292266456

21:54

13-Дек-10

Еще никто не оставлял запись к записи скачать торрент Blade Блейд . Будь первым!

!Обратная связь