Скачать через торрент музыку Thomas Newman - American Beauty - 1999, FLAC бесплатно без регистрации torrent

Если у вас наблюдаются проблемы со скриншотами, переходом по ссылками, скачиванием торрентов - проблемы в блокировщике рекламы AdBlock. #хорошегоДня!


Статистика раздачи
Размер:  297 MB   |    Зарегистрирован:  6 лет 7 месяцев   |    .torrent скачан:  77 раз   |   
Раздают:  1  
   
Загрузка...
 
Автор Сообщение

AqvaGen


Thomas Newman - American Beauty

Жанр: Score / Soundtrack
Год выпуска диска: 1999
Производитель диска: USA
Аудио кодек: FLAC
Тип рипа: image+.cue
Битрейт аудио: lossless
Продолжительность: 46:17
Трэклист:
01. Thomas Newman - Dead Already
02. Elliott Smith - Because
03. The Folk Implosion - Free To Go
04. Free - All Right Now
05. Bill Withers - Use Me
06. Eels - Cancer For The Cure
07. The Who - The Seeker
08. Bobby Darin - Don't Rain On My Parade
09. Betty Carter - Open The Door
10. Gomez - We Haven't Turned Around
11. Peggy Lee - Bali Ha'i
12. Thomas Newman - Any Other Name
Доп. информация:
Exact Audio Copy V0.99 prebeta 4 from 23. January 2008

EAC extraction logfile from 18. September 2008, 21:18

Various / American Beauty

Used drive : _NEC DVD_RW ND-2510A Adapter: 1 ID: 0

Read mode : Secure
Utilize accurate stream : Yes
Defeat audio cache : Yes
Make use of C2 pointers : No

Read offset correction : 48
Overread into Lead-In and Lead-Out : No
Fill up missing offset samples with silence : Yes
Delete leading and trailing silent blocks : No
Null samples used in CRC calculations : Yes
Used interface : Native Win32 interface for Win NT & 2000

Used output format : Internal WAV Routines
Sample format : 44.100 Hz; 16 Bit; Stereo

TOC of the extracted CD

Track | Start | Length | Start sector | End sector
---------------------------------------------------------
1 | 0:00.00 | 3:17.42 | 0 | 14816
2 | 3:17.42 | 2:19.73 | 14817 | 25314
3 | 5:37.40 | 3:31.40 | 25315 | 41179
4 | 9:09.05 | 5:29.37 | 41180 | 65891
5 | 14:38.42 | 3:42.25 | 65892 | 82566
6 | 18:20.67 | 4:44.45 | 82567 | 103911
7 | 23:05.37 | 3:24.30 | 103912 | 119241
8 | 26:29.67 | 2:55.25 | 119242 | 132391
9 | 29:25.17 | 3:12.25 | 132392 | 146816
10 | 32:37.42 | 6:28.50 | 146817 | 175966
11 | 39:06.17 | 3:10.20 | 175967 | 190236
12 | 42:16.37 | 4:09.50 | 190237 | 208961

Range status and errors

Selected range

Filename D:\Temp\American Beauty - Music From The Original Motion Picture Soundtrack\Various - American Beauty.wav

Peak level 99.8 %
Range quality 99.9 %
Copy CRC 0CDE9012
Copy OK

No errors occurred

AccurateRip summary

Track 1 accurately ripped (confidence 21) [17AA357F]
Track 2 accurately ripped (confidence 21) [9BE380AF]
Track 3 accurately ripped (confidence 22) [00576CE2]
Track 4 accurately ripped (confidence 21) [D077B729]
Track 5 accurately ripped (confidence 21) [BC6358A1]
Track 6 accurately ripped (confidence 21) [3D8A1ECB]
Track 7 accurately ripped (confidence 21) [94AF91C4]
Track 8 accurately ripped (confidence 21) [B43B9244]
Track 9 accurately ripped (confidence 21) [53D70BF6]
Track 10 accurately ripped (confidence 21) [F97C9AC0]
Track 11 accurately ripped (confidence 21) [7756978F]
Track 12 accurately ripped (confidence 22) [7201AD28]

All tracks accurately ripped

End of status report
Главный шедевр Томаса Ньюмана, и один из самых красивых саундтреков в истории к одному из лучших фильмов. Original Motion Picture Soundtrack, вышедший в 1999-м году, содержал только две его композиции - остальные были изданы в 2000-м на Original Motion Picture Score.

Отличие от раздающейся версии - пройден Accurate Rip в логе, американская версия диска, там же - российская.

Трекер:  [ 09-Фев-2011 15:31 ]

  

Скачать .torrent

Размер .torrent файла 12 KB


Размер: 297 MB
Хэш (hash) релиза: a2bd604278049a4a3bf7083e9b87a02adaef30

bot

Топик был перенесен в форум Саундтреки к фильмам и мультфильмам (lossless)

Перенес AqvaGen

Хотите добавить комментарий к записи скачать торрент Thomas Newman - American Beauty - 1999, FLAC

!Обратная связь