Скачать через торрент музыку Сумасшедшее сердце Crazy Heart бесплатно без регистрации torrent

Если у вас наблюдаются проблемы со скриншотами, переходом по ссылками, скачиванием торрентов - проблемы в блокировщике рекламы AdBlock. #хорошегоДня!


Статистика раздачи
Размер:  378 MB   |    Зарегистрирован:  6 лет 7 месяцев   |    .torrent скачан:  64 раза   |   
Раздают:  1  
   
Загрузка...
 
Автор Сообщение

AqvaGen


Сумасшедшее сердце / Crazy Heart [Deluxe Edition]

Жанр: Soundtrack / Country / Bluegrass
Год выпуска диска: 2010
Производитель диска: USA
Аудио кодек: FLAC
Тип рипа: tracks+.cue
Битрейт аудио: lossless
Продолжительность: 01:07:50

01 - Jeff Bridges - Hold On You (02:54)
02 - Buck Owens - Hello Trouble (01:53)
03 - The Louvin Brothers - My Baby's Gone (02:46)
04 - Stephen Bruton - Somebody Else (Instrumental) (01:55)
05 - Jeff Bridges - Somebody Else (04:38)
06 - Ryan Bingham - I Don't Know (02:23)
07 - Thomas Canning - Wesley's Piano (01:24)
08 - Jeff Bridges - Fallin' & Flyin' (03:02)
09 - Kitty Wells - Searching (For Someone Like You) (02:38)
10 - Jeff Bridges - I Don't Know (02:16)
11 - Lightnin' Hopkins - Once A Gambler (04:55)
12 - Waylon Jennings - Are You Sure Hank Done It This Way (02:55)
13 - The Delmore Brothers - I Let The Freight Train Carry Me On (02:36)
14 - George Jones - Color Of The Blues (02:52)
15 - Lucinda Williams - Joy (04:07)
16 - Colin Farrell & Jeff Bridges - Fallin' & Flyin' (02:43)
17 - Colin Farrell - Gone, Gone, Gone (02:39)
18 - Townes Van Zandt - If I Needed You (03:26)
19 - Sam Phillips - Reflecting Light (03:21)
20 - Lydia Mendoza - Mal Hombre (03:30)
21 - Robert Duvall - Live Forever (00:50)
22 - Jeff Bridges - Brand New Angel (03:49)
23 - Ryan Bingham - The Weary Kind (Theme From Crazy Heart) (04:18)

Источник: waffles.fm
 
X Lossless Decoder version 20100409 (117.2)

XLD extraction logfile from 2010-04-09 15:28:10 -0700

Various Artists / Crazy Heart: Original Motion Picture Soundtrack [Deluxe Edition]

Used drive : HL-DT-ST DVDRW GS21N (revision SA18)

Use cdparanoia mode : YES (CDParanoia III 10.2 engine)Disable audio cache : OK for the drive with cache less than 2750KBMake use of C2 pointers : NORead offset correction : 667Max retry count : 100

TOC of the extracted CD Track | Start | Length | Start sector | End sector --------------------------------------------------------- 1 | 00:00:00 | 02:53:60 | 0 | 13034 2 | 02:53:60 | 01:52:44 | 13035 | 21478 3 | 04:46:29 | 02:46:35 | 21479 | 33963 4 | 07:32:64 | 01:55:26 | 33964 | 42614 5 | 09:28:15 | 04:38:31 | 42615 | 63495 6 | 14:06:46 | 02:23:34 | 63496 | 74254 7 | 16:30:05 | 01:23:52 | 74255 | 80531 8 | 17:53:57 | 03:02:19 | 80532 | 94200 9 | 20:56:01 | 02:37:57 | 94201 | 106032 10 | 23:33:58 | 02:15:66 | 106033 | 116223 11 | 25:49:49 | 04:55:31 | 116224 | 138379 12 | 30:45:05 | 02:54:68 | 138380 | 151497 13 | 33:39:73 | 02:35:56 | 151498 | 163178 14 | 36:15:54 | 02:51:56 | 163179 | 176059 15 | 39:07:35 | 04:06:69 | 176060 | 194578 16 | 43:14:29 | 02:42:46 | 194579 | 206774 17 | 45:57:00 | 02:39:21 | 206775 | 218720 18 | 48:36:21 | 03:26:06 | 218721 | 234176 19 | 52:02:27 | 03:20:73 | 234177 | 249249 20 | 55:23:25 | 03:30:32 | 249250 | 265031 21 | 58:53:57 | 00:50:09 | 265032 | 268790 22 | 59:43:66 | 03:48:56 | 268791 | 285946 23 | 63:32:47 | 04:18:17 | 285947 | 305313

Track 01 Filename : /Users/John/Downloads/Completed Torrents/Crazy Heart Orginal Motion Picture Soundtrack (Deluxe) [FLAC]/01 Jeff Bridges - Hold On You.flac

Pre-gap length : 00:02:00

CRC32 hash (test run) : 00E8F8A1 CRC32 hash : 00E8F8A1 CRC32 hash (skip zero) : B1D273B4 AccurateRip signature : 0D024E20 ->Track not present in AccurateRip database. Statistics Read error : 0 Skipped (treated as error) : 0 Edge jitter error (maybe fixed) : 0 Atom jitter error (maybe fixed) : 0 Drift error (maybe fixed) : 0 Dropped bytes error (maybe fixed) : 0 Duplicated bytes error (maybe fixed) : 0 Inconsistency in error sectors : 0

Track 02 Filename : /Users/John/Downloads/Completed Torrents/Crazy Heart Orginal Motion Picture Soundtrack (Deluxe) [FLAC]/02 Buck Owens - Hello Trouble.flac

CRC32 hash (test run) : 5515AEBE CRC32 hash : 5515AEBE CRC32 hash (skip zero) : 25D98711 AccurateRip signature : 630AA9AF ->Track not present in AccurateRip database. Statistics Read error : 0 Skipped (treated as error) : 0 Edge jitter error (maybe fixed) : 0 Atom jitter error (maybe fixed) : 0 Drift error (maybe fixed) : 0 Dropped bytes error (maybe fixed) : 0 Duplicated bytes error (maybe fixed) : 0 Inconsistency in error sectors : 0

Track 03 Filename : /Users/John/Downloads/Completed Torrents/Crazy Heart Orginal Motion Picture Soundtrack (Deluxe) [FLAC]/03 The Louvin Brothers - My Baby's Gone.flac

CRC32 hash (test run) : 02887C98 CRC32 hash : 02887C98 CRC32 hash (skip zero) : B9987BFF AccurateRip signature : 763CBFC3 ->Track not present in AccurateRip database. Statistics Read error : 0 Skipped (treated as error) : 0 Edge jitter error (maybe fixed) : 0 Atom jitter error (maybe fixed) : 0 Drift error (maybe fixed) : 0 Dropped bytes error (maybe fixed) : 0 Duplicated bytes error (maybe fixed) : 0 Inconsistency in error sectors : 0

Track 04 Filename : /Users/John/Downloads/Completed Torrents/Crazy Heart Orginal Motion Picture Soundtrack (Deluxe) [FLAC]/04 Stephen Bruton - Somebody Else (Instrumental).flac

CRC32 hash (test run) : AB602162 CRC32 hash : AB602162 CRC32 hash (skip zero) : 80F8633A AccurateRip signature : 917A2D8A ->Track not present in AccurateRip database. Statistics Read error : 0 Skipped (treated as error) : 0 Edge jitter error (maybe fixed) : 0 Atom jitter error (maybe fixed) : 0 Drift error (maybe fixed) : 0 Dropped bytes error (maybe fixed) : 0 Duplicated bytes error (maybe fixed) : 0 Inconsistency in error sectors : 0

Track 05 Filename : /Users/John/Downloads/Completed Torrents/Crazy Heart Orginal Motion Picture Soundtrack (Deluxe) [FLAC]/05 Jeff Bridges - Somebody Else.flac

CRC32 hash (test run) : 1B6E3C20 CRC32 hash : 1B6E3C20 CRC32 hash (skip zero) : A12BECD0 AccurateRip signature : BC0E1259 ->Track not present in AccurateRip database. Statistics Read error : 0 Skipped (treated as error) : 0 Edge jitter error (maybe fixed) : 0 Atom jitter error (maybe fixed) : 0 Drift error (maybe fixed) : 0 Dropped bytes error (maybe fixed) : 0 Duplicated bytes error (maybe fixed) : 0 Inconsistency in error sectors : 0

Track 06 Filename : /Users/John/Downloads/Completed Torrents/Crazy Heart Orginal Motion Picture Soundtrack (Deluxe) [FLAC]/06 Ryan Bingham - I Don't Know.flac

CRC32 hash (test run) : B3A3F887 CRC32 hash : B3A3F887 CRC32 hash (skip zero) : 674C00F3 AccurateRip signature : BA7BE51C ->Track not present in AccurateRip database. Statistics Read error : 0 Skipped (treated as error) : 0 Edge jitter error (maybe fixed) : 0 Atom jitter error (maybe fixed) : 0 Drift error (maybe fixed) : 0 Dropped bytes error (maybe fixed) : 0 Duplicated bytes error (maybe fixed) : 0 Inconsistency in error sectors : 0

Track 07 Filename : /Users/John/Downloads/Completed Torrents/Crazy Heart Orginal Motion Picture Soundtrack (Deluxe) [FLAC]/07 Thomas Canning - Wesley's Piano.flac

CRC32 hash (test run) : 2D3A2621 CRC32 hash : 2D3A2621 CRC32 hash (skip zero) : D379A739 AccurateRip signature : 32D5EBBA ->Track not present in AccurateRip database. Statistics Read error : 0 Skipped (treated as error) : 0 Edge jitter error (maybe fixed) : 0 Atom jitter error (maybe fixed) : 0 Drift error (maybe fixed) : 0 Dropped bytes error (maybe fixed) : 0 Duplicated bytes error (maybe fixed) : 0 Inconsistency in error sectors : 0

Track 08 Filename : /Users/John/Downloads/Completed Torrents/Crazy Heart Orginal Motion Picture Soundtrack (Deluxe) [FLAC]/08 Jeff Bridges - Fallin' & Flyin'.flac

CRC32 hash (test run) : F9A02947 CRC32 hash : F9A02947 CRC32 hash (skip zero) : 3A5F41F0 AccurateRip signature : AAF79F2B ->Track not present in AccurateRip database. Statistics Read error : 0 Skipped (treated as error) : 0 Edge jitter error (maybe fixed) : 0 Atom jitter error (maybe fixed) : 0 Drift error (maybe fixed) : 0 Dropped bytes error (maybe fixed) : 0 Duplicated bytes error (maybe fixed) : 0 Inconsistency in error sectors : 0

Track 09 Filename : /Users/John/Downloads/Completed Torrents/Crazy Heart Orginal Motion Picture Soundtrack (Deluxe) [FLAC]/09 Kitty Wells - Searching (For Someone Like You).flac

CRC32 hash (test run) : DD9EA52E CRC32 hash : DD9EA52E CRC32 hash (skip zero) : 70FD27B2 AccurateRip signature : 9857ABB0 ->Track not present in AccurateRip database. Statistics Read error : 0 Skipped (treated as error) : 0 Edge jitter error (maybe fixed) : 0 Atom jitter error (maybe fixed) : 0 Drift error (maybe fixed) : 0 Dropped bytes error (maybe fixed) : 0 Duplicated bytes error (maybe fixed) : 0 Inconsistency in error sectors : 0

Track 10 Filename : /Users/John/Downloads/Completed Torrents/Crazy Heart Orginal Motion Picture Soundtrack (Deluxe) [FLAC]/10 Jeff Bridges - I Don't Know.flac

CRC32 hash (test run) : F973F2AB CRC32 hash : F973F2AB CRC32 hash (skip zero) : 31967862 AccurateRip signature : E11E9D11 ->Track not present in AccurateRip database. Statistics Read error : 0 Skipped (treated as error) : 0 Edge jitter error (maybe fixed) : 0 Atom jitter error (maybe fixed) : 0 Drift error (maybe fixed) : 0 Dropped bytes error (maybe fixed) : 0 Duplicated bytes error (maybe fixed) : 0 Inconsistency in error sectors : 0

Track 11 Filename : /Users/John/Downloads/Completed Torrents/Crazy Heart Orginal Motion Picture Soundtrack (Deluxe) [FLAC]/11 Lightnin' Hopkins - Once A Gambler.flac

CRC32 hash (test run) : 96DE6A39 CRC32 hash : 96DE6A39 CRC32 hash (skip zero) : BBD31452 AccurateRip signature : 8930C6F5 ->Track not present in AccurateRip database. Statistics Read error : 0 Skipped (treated as error) : 0 Edge jitter error (maybe fixed) : 0 Atom jitter error (maybe fixed) : 0 Drift error (maybe fixed) : 0 Dropped bytes error (maybe fixed) : 0 Duplicated bytes error (maybe fixed) : 0 Inconsistency in error sectors : 0

Track 12 Filename : /Users/John/Downloads/Completed Torrents/Crazy Heart Orginal Motion Picture Soundtrack (Deluxe) [FLAC]/12 Waylon Jennings - Are You Sure Hank Done It This Way.flac

CRC32 hash (test run) : AD39D797 CRC32 hash : AD39D797 CRC32 hash (skip zero) : DD528115 AccurateRip signature : AA9D321F ->Track not present in AccurateRip database. Statistics Read error : 0 Skipped (treated as error) : 0 Edge jitter error (maybe fixed) : 0 Atom jitter error (maybe fixed) : 0 Drift error (maybe fixed) : 0 Dropped bytes error (maybe fixed) : 0 Duplicated bytes error (maybe fixed) : 0 Inconsistency in error sectors : 0

Track 13 Filename : /Users/John/Downloads/Completed Torrents/Crazy Heart Orginal Motion Picture Soundtrack (Deluxe) [FLAC]/13 The Delmore Brothers - I Let The Freight Train Carry Me On.flac

CRC32 hash (test run) : B2CDD1F9 CRC32 hash : B2CDD1F9 CRC32 hash (skip zero) : 8336FD60 AccurateRip signature : CF01DF3C ->Track not present in AccurateRip database. Statistics Read error : 0 Skipped (treated as error) : 0 Edge jitter error (maybe fixed) : 0 Atom jitter error (maybe fixed) : 0 Drift error (maybe fixed) : 0 Dropped bytes error (maybe fixed) : 0 Duplicated bytes error (maybe fixed) : 0 Inconsistency in error sectors : 0

Track 14 Filename : /Users/John/Downloads/Completed Torrents/Crazy Heart Orginal Motion Picture Soundtrack (Deluxe) [FLAC]/14 George Jones - Color Of The Blues.flac

CRC32 hash (test run) : 49C3CCAD CRC32 hash : 49C3CCAD CRC32 hash (skip zero) : DE5E2D2C AccurateRip signature : 7099D8B8 ->Track not present in AccurateRip database. Statistics Read error : 0 Skipped (treated as error) : 0 Edge jitter error (maybe fixed) : 0 Atom jitter error (maybe fixed) : 0 Drift error (maybe fixed) : 0 Dropped bytes error (maybe fixed) : 0 Duplicated bytes error (maybe fixed) : 0 Inconsistency in error sectors : 0

Track 15 Filename : /Users/John/Downloads/Completed Torrents/Crazy Heart Orginal Motion Picture Soundtrack (Deluxe) [FLAC]/15 Lucinda Williams - Joy.flac

CRC32 hash (test run) : 3F5B58A1 CRC32 hash : 3F5B58A1 CRC32 hash (skip zero) : 70E91BB3 AccurateRip signature : F88A35CA ->Track not present in AccurateRip database. Statistics Read error : 0 Skipped (treated as error) : 0 Edge jitter error (maybe fixed) : 0 Atom jitter error (maybe fixed) : 0 Drift error (maybe fixed) : 0 Dropped bytes error (maybe fixed) : 0 Duplicated bytes error (maybe fixed) : 0 Inconsistency in error sectors : 0

Track 16 Filename : /Users/John/Downloads/Completed Torrents/Crazy Heart Orginal Motion Picture Soundtrack (Deluxe) [FLAC]/16 Colin Farrell & Jeff Bridges - Fallin' & Flyin'.flac

CRC32 hash (test run) : 8771C1D4 CRC32 hash : 8771C1D4 CRC32 hash (skip zero) : AA948BA8 AccurateRip signature : 36F3C452 ->Track not present in AccurateRip database. Statistics Read error : 0 Skipped (treated as error) : 0 Edge jitter error (maybe fixed) : 0 Atom jitter error (maybe fixed) : 0 Drift error (maybe fixed) : 0 Dropped bytes error (maybe fixed) : 0 Duplicated bytes error (maybe fixed) : 0 Inconsistency in error sectors : 0

Track 17 Filename : /Users/John/Downloads/Completed Torrents/Crazy Heart Orginal Motion Picture Soundtrack (Deluxe) [FLAC]/17 Colin Farrell - Gone, Gone, Gone.flac

CRC32 hash (test run) : 0945060F CRC32 hash : 0945060F CRC32 hash (skip zero) : 870C151F AccurateRip signature : C4FBAFB6 ->Track not present in AccurateRip database. Statistics Read error : 0 Skipped (treated as error) : 0 Edge jitter error (maybe fixed) : 0 Atom jitter error (maybe fixed) : 0 Drift error (maybe fixed) : 0 Dropped bytes error (maybe fixed) : 0 Duplicated bytes error (maybe fixed) : 0 Inconsistency in error sectors : 0

Track 18 Filename : /Users/John/Downloads/Completed Torrents/Crazy Heart Orginal Motion Picture Soundtrack (Deluxe) [FLAC]/18 Townes Van Zandt - If I Needed You.flac

CRC32 hash (test run) : E9ED064F CRC32 hash : E9ED064F CRC32 hash (skip zero) : AA898F3B AccurateRip signature : 14EAF162 ->Track not present in AccurateRip database. Statistics Read error : 0 Skipped (treated as error) : 0 Edge jitter error (maybe fixed) : 0 Atom jitter error (maybe fixed) : 0 Drift error (maybe fixed) : 0 Dropped bytes error (maybe fixed) : 0 Duplicated bytes error (maybe fixed) : 0 Inconsistency in error sectors : 0

Track 19 Filename : /Users/John/Downloads/Completed Torrents/Crazy Heart Orginal Motion Picture Soundtrack (Deluxe) [FLAC]/19 Sam Phillips - Reflecting Light.flac

CRC32 hash (test run) : B781E8EC CRC32 hash : B781E8EC CRC32 hash (skip zero) : 319AEE29 AccurateRip signature : 4DB75977 ->Track not present in AccurateRip database. Statistics Read error : 0 Skipped (treated as error) : 0 Edge jitter error (maybe fixed) : 0 Atom jitter error (maybe fixed) : 0 Drift error (maybe fixed) : 0 Dropped bytes error (maybe fixed) : 0 Duplicated bytes error (maybe fixed) : 0 Inconsistency in error sectors : 0

Track 20 Filename : /Users/John/Downloads/Completed Torrents/Crazy Heart Orginal Motion Picture Soundtrack (Deluxe) [FLAC]/20 Lydia Mendoza - Mal Hombre.flac

CRC32 hash (test run) : 9FB2E807 CRC32 hash : 9FB2E807 CRC32 hash (skip zero) : 16F2656C AccurateRip signature : 54341A2A ->Track not present in AccurateRip database. Statistics Read error : 0 Skipped (treated as error) : 0 Edge jitter error (maybe fixed) : 0 Atom jitter error (maybe fixed) : 0 Drift error (maybe fixed) : 0 Dropped bytes error (maybe fixed) : 0 Duplicated bytes error (maybe fixed) : 0 Inconsistency in error sectors : 0

Track 21 Filename : /Users/John/Downloads/Completed Torrents/Crazy Heart Orginal Motion Picture Soundtrack (Deluxe) [FLAC]/21 Robert Duvall - Live Forever.flac

CRC32 hash (test run) : 4C869EFE CRC32 hash : 4C869EFE CRC32 hash (skip zero) : E17C1480 AccurateRip signature : B117EDE6 ->Track not present in AccurateRip database. Statistics Read error : 0 Skipped (treated as error) : 0 Edge jitter error (maybe fixed) : 0 Atom jitter error (maybe fixed) : 0 Drift error (maybe fixed) : 0 Dropped bytes error (maybe fixed) : 0 Duplicated bytes error (maybe fixed) : 0 Inconsistency in error sectors : 0

Track 22 Filename : /Users/John/Downloads/Completed Torrents/Crazy Heart Orginal Motion Picture Soundtrack (Deluxe) [FLAC]/22 Jeff Bridges - Brand New Angel.flac

CRC32 hash (test run) : 383AD43A CRC32 hash : 383AD43A CRC32 hash (skip zero) : 8EA4FD77 AccurateRip signature : D2415381 ->Track not present in AccurateRip database. Statistics Read error : 0 Skipped (treated as error) : 0 Edge jitter error (maybe fixed) : 0 Atom jitter error (maybe fixed) : 0 Drift error (maybe fixed) : 0 Dropped bytes error (maybe fixed) : 0 Duplicated bytes error (maybe fixed) : 0 Inconsistency in error sectors : 0

Track 23 Filename : /Users/John/Downloads/Completed Torrents/Crazy Heart Orginal Motion Picture Soundtrack (Deluxe) [FLAC]/23 Ryan Bingham - The Weary Kind (Theme From Crazy Heart).flac

CRC32 hash (test run) : F6145B6E CRC32 hash : F6145B6E CRC32 hash (skip zero) : 84A34144 AccurateRip signature : 69F8541F ->Track not present in AccurateRip database. Statistics Read error : 0 Skipped (treated as error) : 0 Edge jitter error (maybe fixed) : 0 Atom jitter error (maybe fixed) : 0 Drift error (maybe fixed) : 0 Dropped bytes error (maybe fixed) : 0 Duplicated bytes error (maybe fixed) : 0 Inconsistency in error sectors : 0

No errors occurred

End of status report
 
TITLE "Crazy Heart: Original Motion Picture Soundtrack [Deluxe Edition]"CATALOG 0607396618422REM GENRE "Soundtrack - Country"REM DATE 2010FILE "01 Jeff Bridges - Hold On You.wav" WAVE TRACK 01 AUDIO TITLE "Hold On You" PERFORMER "Jeff Bridges" SONGWRITER "Stephen Bruton/T-Bone Burnett/Bob Neuwirth/John Goodwin" ISRC US27Q0961812 INDEX 01 00:00:00FILE "02 Buck Owens - Hello Trouble.wav" WAVE TRACK 02 AUDIO TITLE "Hello Trouble" PERFORMER "Buck Owens" SONGWRITER "Eddie McDuff/Orville Couch" ISRC USAKK0500980 INDEX 01 00:00:00FILE "03 The Louvin Brothers - My Baby's Gone.wav" WAVE TRACK 03 AUDIO TITLE "My Baby's Gone" PERFORMER "The Louvin Brothers" SONGWRITER "Hazel Houser" ISRC USCA29300262 INDEX 01 00:00:00FILE "04 Stephen Bruton - Somebody Else (Instrumental).wav" WAVE TRACK 04 AUDIO TITLE "Somebody Else (Instrumental)" PERFORMER "Stephen Bruton" SONGWRITER "Stephen Bruton" ISRC US27Q0918101 INDEX 01 00:00:00FILE "05 Jeff Bridges - Somebody Else.wav" WAVE TRACK 05 AUDIO TITLE "Somebody Else" PERFORMER "Jeff Bridges" SONGWRITER "T-Bone Burnett/Stephen Bruton" ISRC US27Q0961813 INDEX 01 00:00:00FILE "06 Ryan Bingham - I Don't Know.wav" WAVE TRACK 06 AUDIO TITLE "I Don't Know" PERFORMER "Ryan Bingham" SONGWRITER "T-Bone Burnett/Stephen Bruton" ISRC US27Q0961814 INDEX 01 00:00:00FILE "07 Thomas Canning - Wesley's Piano.wav" WAVE TRACK 07 AUDIO TITLE "Wesley's Piano" PERFORMER "Thomas Canning" SONGWRITER "Not Documented" ISRC US27Q0918102 INDEX 01 00:00:00FILE "08 Jeff Bridges - Fallin' & Flyin'.wav" WAVE TRACK 08 AUDIO TITLE "Fallin' & Flyin'" PERFORMER "Jeff Bridges" SONGWRITER "Stephen Bruton/Gary Nicholson" ISRC US27Q0961815 INDEX 01 00:00:00FILE "09 Kitty Wells - Searching (For Someone Like You).wav" WAVE TRACK 09 AUDIO TITLE "Searching (For Someone Like You)" PERFORMER "Kitty Wells" SONGWRITER "Murphy Maddux" ISRC USMC15589040 INDEX 01 00:00:00FILE "10 Jeff Bridges - I Don't Know.wav" WAVE TRACK 10 AUDIO TITLE "I Don't Know" PERFORMER "Jeff Bridges" SONGWRITER "Stephen Bruton/T-Bone Burnett" ISRC US27Q0961816 INDEX 01 00:00:00FILE "11 Lightnin' Hopkins - Once A Gambler.wav" WAVE TRACK 11 AUDIO TITLE "Once A Gambler" PERFORMER "Lightnin' Hopkins" SONGWRITER "Sam Hopkins" ISRC USAP39430201 INDEX 01 00:00:00FILE "12 Waylon Jennings - Are You Sure Hank Done It This Way.wav" WAVE TRACK 12 AUDIO TITLE "Are You Sure Hank Done It This Way" PERFORMER "Waylon Jennings" SONGWRITER "Waylon Jennings" ISRC USRN19600058 INDEX 01 00:00:00FILE "13 The Delmore Brothers - I Let The Freight Train Carry Me On.wav" WAVE TRACK 13 AUDIO TITLE "I Let The Freight Train Carry Me On" PERFORMER "The Delmore Brothers" SONGWRITER "Rabon Delmore" ISRC USACU0502270 INDEX 01 00:00:00FILE "14 George Jones - Color Of The Blues.wav" WAVE TRACK 14 AUDIO TITLE "Color Of The Blues" PERFORMER "George Jones" SONGWRITER "L.A.Williams/G. Jones" ISRC USACU0502316 INDEX 01 00:00:00FILE "15 Lucinda Williams - Joy.wav" WAVE TRACK 15 AUDIO TITLE "Joy" PERFORMER "Lucinda Williams" SONGWRITER "Lucinda Williams" ISRC USMR19889017 INDEX 01 00:00:00FILE "16 Colin Farrell & Jeff Bridges - Fallin' & Flyin'.wav" WAVE TRACK 16 AUDIO TITLE "Fallin' & Flyin'" PERFORMER "Colin Farrell & Jeff Bridges" SONGWRITER "Stephen Bruton/Gary Nicholson" ISRC US27Q0961817 INDEX 01 00:00:00FILE "17 Colin Farrell - Gone, Gone, Gone.wav" WAVE TRACK 17 AUDIO TITLE "Gone, Gone, Gone" PERFORMER "Colin Farrell" SONGWRITER "T-Bone Burnett/Ryan Bingham" ISRC US27Q0961818 INDEX 01 00:00:00FILE "18 Townes Van Zandt - If I Needed You.wav" WAVE TRACK 18 AUDIO TITLE "If I Needed You" PERFORMER "Townes Van Zandt" SONGWRITER "Townes Van Zandt" ISRC USEM37200011 INDEX 01 00:00:00FILE "19 Sam Phillips - Reflecting Light.wav" WAVE TRACK 19 AUDIO TITLE "Reflecting Light" PERFORMER "Sam Phillips" SONGWRITER "Sam Phillips" ISRC USNO10480706 INDEX 01 00:00:00FILE "20 Lydia Mendoza - Mal Hombre.wav" WAVE TRACK 20 AUDIO TITLE "Mal Hombre" PERFORMER "Lydia Mendoza" SONGWRITER "Lydia Mendoza" ISRC USAP39270201 INDEX 01 00:00:00FILE "21 Robert Duvall - Live Forever.wav" WAVE TRACK 21 AUDIO TITLE "Live Forever" PERFORMER "Robert Duvall" ISRC US27Q0961819 INDEX 01 00:00:00FILE "22 Jeff Bridges - Brand New Angel.wav" WAVE TRACK 22 AUDIO TITLE "Brand New Angel" PERFORMER "Jeff Bridges" SONGWRITER "Greg Brown" ISRC US27Q0918100 INDEX 01 00:00:00FILE "23 Ryan Bingham - The Weary Kind (Theme From Crazy Heart).wav" WAVE TRACK 23 AUDIO TITLE "The Weary Kind (Theme From Crazy Heart)" PERFORMER "Ryan Bingham" SONGWRITER "Not Documented" ISRC US27Q0961811 INDEX 01 00:00:00



Трекер:  [ 09-Фев-2011 15:32 ]

  

Скачать .torrent

Размер .torrent файла 17 KB


Размер: 378 MB
Хэш (hash) релиза: d94b948f104aea2d6dba9afca04bddcd5ca791bd

Торренты, похожие на Сумасшедшее сердце Crazy Heart скачать торрент

Форум Название Автор Размер S L Добавлен
Саундтреки к фильмам и мультфильмам (mp3) ·· (Soundtrack) Crazy Heart / Сумасшедшее сердце [Various] [Deluxe Version] - 2010, MP3 (tracks), 320 kbps Солнышко 167017587159 MB 0 0 1292265176

21:32

13-Дек-10

bot

Топик был перенесен в форум Саундтреки к фильмам и мультфильмам (lossless)

Перенес AqvaGen

Хотите добавить комментарий к записи скачать торрент Сумасшедшее сердце Crazy Heart

!Обратная связь