Скачать через торрент музыку Джеймс Бонд-007 Коллекция James Bond-007 Collection бесплатно без регистрации torrent

Если у вас наблюдаются проблемы со скриншотами, переходом по ссылками, скачиванием торрентов - проблемы в блокировщике рекламы AdBlock. #хорошегоДня!


Статистика раздачи
Размер:  7.83 GB   |    Зарегистрирован:  6 лет 9 месяцев   |    .torrent скачан:  77 раз   |   
Раздают:  1  
   
Загрузка...
 
Автор Сообщение

AqvaGen


Джеймс Бонд-007 Коллекция / James Bond-007 Collection

Жанр: Score
Композитор: Monty Norman, John Barry, George Martin, Marvin Hamlisch, Bill Conti, Michael Kamen, Eric Serra, David Arnold, Burt Bacharach, Michel Legrand
Год выпуска диска: 1989-2008
Год выпуска фильма: 1962-2008
Страна-производитель диска: USA, EU, Japan, Russia
Издатели (лейбл): EMI / Capitol / Virgin, MCA, A&M Records, Chapter III / Gold Circle, Warner Bros. / ФГ Никитин, SONY BMG, Varese Sarabande, Silva Screen
Аудио кодек: FLAC (*.flac)
Тип рипа: image+.cue
Битрейт аудио: lossless

Источник: собственные рипы
Наличие сканов в содержимом раздачи: да
Продолжительность: 39.47
Композитор: Monty Norman
Страна-производитель диска: EU (Belgium)
Издатель (лейбл): EMI/Capitol

Треклист:
01. James Bond Theme (01:48.37)
Performed by John Barry & Orchestra
02. Kingston Calypso (02:45.38)
Performed by Byron Lee and the Dragonaires
03. Jamaican Rock (02:05.37)
04. Jump Up (02:13.30)
Performed by Byron Lee and the Dragonaires
05. Audio Bongo (01:33.35)
06. Under The Mango Tree (02:25.45)
Performed by Diana Coupland
07. Twisting With James (03:12.03)
08. Jamaica Jazz (01:08.30)
09. Under The Mango Tree (02:46.37)
10. Jump Up (01:30.50)
Performed by Byron Lee and the Dragonaires
11. Dr. No's Fantasy (01:43.43)
12. Kingston Calypso (02:31.12)
Performed by Diana Coupland
13. The Island Speaks (03:23.33)
14. Under The Mango Tree (02:44.05)
Performed by Monty Norman
15. The Boy's Chase (01:34.42)
16. Dr. No's Theme (02:02.68)
17. The James Bond Theme (02:24.35)
18. Love At Last (01:53.20)
 
Exact Audio Copy V0.99 prebeta 5 from 4. May 2009

Отчёт EAC об извлечении, выполненном 12. сентября 2010, 15:31

Monty Norman / Dr. No

Дисковод: TSSTcorpCDDVDW SH-S202H Adapter: 3 ID: 0

Режим чтения : ДостоверностьИспользование точного потока : ДаОтключение кэша аудио : ДаИспользование указателей C2 : Нет

Коррекция смещения при чтении : 6Способность читать области Lead-in и Lead-out : НетЗаполнение пропущенных сэмплов тишиной : ДаУдаление блоков с тишиной в начале и конце : НетПри вычислениях CRC использовались нулевые сэмплы : ДаИнтерфейс : Встроенный Win32-интерфейс для Win NT/2000

Выходной формат : Внутренние WAV-операцииФормат сэмплов : 44.100 Гц; 16 бит; стерео

TOC извлечённого CD

Трек | Старт | Длительность | Начальный сектор | Конечный сектор --------------------------------------------------------------------- 1 | 0:00.00 | 1:48.37 | 0 | 8136 2 | 1:48.37 | 2:45.38 | 8137 | 20549 3 | 4:34.00 | 2:05.37 | 20550 | 29961 4 | 6:39.37 | 2:13.30 | 29962 | 39966 5 | 8:52.67 | 1:33.35 | 39967 | 46976 6 | 10:26.27 | 2:25.45 | 46977 | 57896 7 | 12:51.72 | 3:12.03 | 57897 | 72299 8 | 16:04.00 | 1:08.30 | 72300 | 77429 9 | 17:12.30 | 2:46.37 | 77430 | 89916 10 | 19:58.67 | 1:30.50 | 89917 | 96716 11 | 21:29.42 | 1:43.43 | 96717 | 104484 12 | 23:13.10 | 2:31.12 | 104485 | 115821 13 | 25:44.22 | 3:23.33 | 115822 | 131079 14 | 29:07.55 | 2:44.05 | 131080 | 143384 15 | 31:51.60 | 1:34.42 | 143385 | 150476 16 | 33:26.27 | 2:02.68 | 150477 | 159694 17 | 35:29.20 | 2:24.35 | 159695 | 170529 18 | 37:53.55 | 1:53.20 | 170530 | 179024

Характеристики диапазона извлечения и сообщения об ошибках

Выбранный диапазон

Имя файла C:\Torrent\Мои раздачи\James Bond Collection\01. Dr. No (1962)\Monty Norman - Dr. No.wav

Пиковый уровень 93.2 % Качество диапазона 100.0 % CRC теста E8BBB526 CRC копии E8BBB526 Копирование... OK

Ошибок не произошло

AccurateRip: сводка

Трек 1 точное извлечение (доверие 8) [F583C158]Трек 2 точное извлечение (доверие 9) [15859026]Трек 3 точное извлечение (доверие 9) [983F6772]Трек 4 точное извлечение (доверие 9) [40205EF1]Трек 5 точное извлечение (доверие 9) [8F914C1D]Трек 6 точное извлечение (доверие 9) [D2811F3E]Трек 7 точное извлечение (доверие 9) [5177895A]Трек 8 точное извлечение (доверие 9) [95394E09]Трек 9 точное извлечение (доверие 9) [12C8443F]Трек 10 точное извлечение (доверие 9) [075FDE45]Трек 11 точное извлечение (доверие 9) [2FA74FF2]Трек 12 точное извлечение (доверие 9) [7B2C72FD]Трек 13 точное извлечение (доверие 9) [57EE7A1F]Трек 14 точное извлечение (доверие 9) [0BF0A539]Трек 15 точное извлечение (доверие 9) [0828DFDF]Трек 16 точное извлечение (доверие 9) [8821E83C]Трек 17 точное извлечение (доверие 9) [F7DE55C8]Трек 18 точное извлечение (доверие 8) [31E1F7BD]

Все треки извлечены точно

Конец отчёта
Продолжительность: 36.53
Композитор: John Barry
Страна-производитель диска: EU (Belgium)
Издатель (лейбл): EMI/Capitol

Треклист:
01. Opening Titles - James Bond Is Back – From Russia With Love – James Bond Theme (02:29.27)
02. Tania Meets Klebb (01:29.63)
03. Meeting In St. Sophia (01:09.15)
04. The Golden Horn (02:26.55)
05. Girl Trouble (02:25.25)
06. Bond Meets Tania (01:20.05)
07. 007 (02:46.37)
08. Gypsy Camp (01:16.60)
09. Death Of Grant (01:59.63)
10. From Russia With Love (02:35.00)
Performed by Matt Monro
11. Spectre Island (01:18.17)
12. Guitar Lament (01:11.68)
13. Man Overboard - Smersh In Action (02:18.67)
14. James Bond With Bongos (02:32.40)
15. Stalking (02:05.05)
16. Leila Dances (01:56.55)
17. Death Of Kerim (02:30.25)
18. 007 Takes The Lektor (03:01.18)
 
Exact Audio Copy V0.99 prebeta 5 from 4. May 2009

Отчёт EAC об извлечении, выполненном 5. октября 2010, 16:53

John Barry / From Russia With Love

Дисковод: TSSTcorpCDDVDW SH-S202H Adapter: 3 ID: 0

Режим чтения : ДостоверностьИспользование точного потока : ДаОтключение кэша аудио : ДаИспользование указателей C2 : Нет

Коррекция смещения при чтении : 6Способность читать области Lead-in и Lead-out : НетЗаполнение пропущенных сэмплов тишиной : ДаУдаление блоков с тишиной в начале и конце : НетПри вычислениях CRC использовались нулевые сэмплы : ДаИнтерфейс : Встроенный Win32-интерфейс для Win NT/2000

Выходной формат : Внутренние WAV-операцииФормат сэмплов : 44.100 Гц; 16 бит; стерео

TOC извлечённого CD

Трек | Старт | Длительность | Начальный сектор | Конечный сектор --------------------------------------------------------------------- 1 | 0:00.00 | 2:29.27 | 0 | 11201 2 | 2:29.27 | 1:29.63 | 11202 | 17939 3 | 3:59.15 | 1:09.15 | 17940 | 23129 4 | 5:08.30 | 2:26.55 | 23130 | 34134 5 | 7:35.10 | 2:25.25 | 34135 | 45034 6 | 10:00.35 | 1:20.05 | 45035 | 51039 7 | 11:20.40 | 2:46.37 | 51040 | 63526 8 | 14:07.02 | 1:16.60 | 63527 | 69286 9 | 15:23.62 | 1:59.63 | 69287 | 78274 10 | 17:23.50 | 2:35.00 | 78275 | 89899 11 | 19:58.50 | 1:18.17 | 89900 | 95766 12 | 21:16.67 | 1:11.68 | 95767 | 101159 13 | 22:28.60 | 2:18.67 | 101160 | 111576 14 | 24:47.52 | 2:32.40 | 111577 | 123016 15 | 27:20.17 | 2:05.05 | 123017 | 132396 16 | 29:25.22 | 1:56.55 | 132397 | 141151 17 | 31:22.02 | 2:30.25 | 141152 | 152426 18 | 33:52.27 | 3:01.18 | 152427 | 166019

Характеристики диапазона извлечения и сообщения об ошибках

Выбранный диапазон

Имя файла C:\Torrent\Мои раздачи\James Bond Collection\02. From Russia With Love (1963)\John Barry - From Russia With Love.wav

Пиковый уровень 98.6 % Качество диапазона 100.0 % CRC теста 09657B7C CRC копии 09657B7C Копирование... OK

Ошибок не произошло

AccurateRip: сводка

Трек 1 точное извлечение (доверие 8) [CD8B7EEF]Трек 2 точное извлечение (доверие 9) [BB9AAB96]Трек 3 точное извлечение (доверие 9) [3AF14D8D]Трек 4 точное извлечение (доверие 9) [0BB75FF4]Трек 5 точное извлечение (доверие 9) [CB8E7313]Трек 6 точное извлечение (доверие 9) [6128C87F]Трек 7 точное извлечение (доверие 9) [3095CF64]Трек 8 точное извлечение (доверие 9) [7358C738]Трек 9 точное извлечение (доверие 9) [8E9BF12A]Трек 10 точное извлечение (доверие 9) [F92E13E1]Трек 11 точное извлечение (доверие 9) [FEE612A1]Трек 12 точное извлечение (доверие 9) [B7838637]Трек 13 точное извлечение (доверие 9) [0C0A969A]Трек 14 точное извлечение (доверие 9) [291A5658]Трек 15 точное извлечение (доверие 9) [9EA758CA]Трек 16 точное извлечение (доверие 9) [09B06B8C]Трек 17 точное извлечение (доверие 9) [036A150A]Трек 18 точное извлечение (доверие 9) [6F4C3615]

Все треки извлечены точно

Конец отчёта
Продолжительность: 41.12
Композитор: John Barry
Страна-производитель диска: EU (Belgium)
Издатель (лейбл): EMI/Capitol

Треклист:
01. Main Title – Goldfinger (02:48.07)
Performed by Shirley Bassey
02. Into Miami (00:57.13)
03. Alpine Drive - Auric's Factory (04:27.57)
04. Oddjob's Pressing Engagement (03:08.30)
05. Bond Back In Action Again (02:31.35)
06. Teasing The Korean (02:16.60)
07. Gassing The Gangsters (01:05.13)
08. Goldfinger (Instrumental Version) (02:10.12)
09. Dawn Raid On Fort Knox (05:48.10)
10. The Arrival Of The Bomb And Count Down (03:29.05)
11. The Death Of Goldfinger - End Titles (02:34.50)
12. Golden Girl (02:10.38)
13. Death Of Tilley (02:04.67)
14. The Laser Beam (02:54.08)
15. Pussy Galore's Flying Circus (02:46.15)
 
Exact Audio Copy V0.99 prebeta 5 from 4. May 2009

Отчёт EAC об извлечении, выполненном 12. сентября 2010, 16:19

John Barry / Goldfinger

Дисковод: TSSTcorpCDDVDW SH-S202H Adapter: 3 ID: 0

Режим чтения : ДостоверностьИспользование точного потока : ДаОтключение кэша аудио : ДаИспользование указателей C2 : Нет

Коррекция смещения при чтении : 6Способность читать области Lead-in и Lead-out : НетЗаполнение пропущенных сэмплов тишиной : ДаУдаление блоков с тишиной в начале и конце : НетПри вычислениях CRC использовались нулевые сэмплы : ДаИнтерфейс : Встроенный Win32-интерфейс для Win NT/2000

Выходной формат : Внутренние WAV-операцииФормат сэмплов : 44.100 Гц; 16 бит; стерео

TOC извлечённого CD

Трек | Старт | Длительность | Начальный сектор | Конечный сектор --------------------------------------------------------------------- 1 | 0:00.00 | 2:48.07 | 0 | 12606 2 | 2:48.07 | 0:57.13 | 12607 | 16894 3 | 3:45.20 | 4:27.57 | 16895 | 36976 4 | 8:13.02 | 3:08.30 | 36977 | 51106 5 | 11:21.32 | 2:31.35 | 51107 | 62466 6 | 13:52.67 | 2:16.60 | 62467 | 72726 7 | 16:09.52 | 1:05.13 | 72727 | 77614 8 | 17:14.65 | 2:10.12 | 77615 | 87376 9 | 19:25.02 | 5:48.10 | 87377 | 113486 10 | 25:13.12 | 3:29.05 | 113487 | 129166 11 | 28:42.17 | 2:34.50 | 129167 | 140766 12 | 31:16.67 | 2:10.38 | 140767 | 150554 13 | 33:27.30 | 2:04.67 | 150555 | 159921 14 | 35:32.22 | 2:54.08 | 159922 | 172979 15 | 38:26.30 | 2:46.15 | 172980 | 185444

Характеристики диапазона извлечения и сообщения об ошибках

Выбранный диапазон

Имя файла C:\Torrent\Мои раздачи\James Bond Collection\03. Goldfinger (1964)\John Barry - Goldfinger.wav

Пиковый уровень 77.0 % Качество диапазона 100.0 % CRC теста D6584D3B CRC копии D6584D3B Копирование... OK

Ошибок не произошло

AccurateRip: сводка

Трек 1 точное извлечение (доверие 9) [1F6924A5]Трек 2 точное извлечение (доверие 9) [B589F471]Трек 3 точное извлечение (доверие 9) [0B4DFF55]Трек 4 точное извлечение (доверие 9) [0F5C3BB3]Трек 5 точное извлечение (доверие 9) [5C3DBCC0]Трек 6 точное извлечение (доверие 9) [BD9DCEF0]Трек 7 точное извлечение (доверие 9) [330FF6AE]Трек 8 точное извлечение (доверие 9) [7151BE0E]Трек 9 точное извлечение (доверие 9) [9976A81A]Трек 10 точное извлечение (доверие 9) [2E5EAF2A]Трек 11 точное извлечение (доверие 9) [CB125AFF]Трек 12 точное извлечение (доверие 9) [FF5329E0]Трек 13 точное извлечение (доверие 9) [7B6B410A]Трек 14 точное извлечение (доверие 9) [80C4CC80]Трек 15 точное извлечение (доверие 9) [D5B48904]

Все треки извлечены точно

Конец отчёта
Продолжительность: 79.03
Композитор: John Barry
Страна-производитель диска: USA
Издатель (лейбл): EMI/Capitol

Треклист:
01. Thunderball – Main Title (03:03.47)
Performed by Tom Jones
02. Chateau Flight (02:31.00)
03. The Spa (02:42.43)
04. Switching The Body (02:48.17)
05. The Bomb (05:45.20)
06. Cafe Martinique (03:45.58)
07. Thunderball (03:57.15)
08. Death Of Fiona (02:31.02)
09. Bond Below Disco Volante (04:05.08)
10. Search For Vulcan (02:24.50)
11. 007 (02:27.37)
12. Mr. Kiss Kiss Bang Bang (03:18.18)
13. Gunbarrel/Traction Table/Gassing The Plane/Car Chase (04:43.25)
14. Bond Meets Domino/Shark Tank/Lights Out For Paula/For King And Country (08:18.12)
15. Street Chase (03:23.33)
16. Finding The Plane/Underwater Ballet/Bond With Spectre Frogmen/Leiter To The Rescue/Bond Joins Underwater Battle (10:15.40)
17. Underwater Mayhem/Death Of Largo/End Titles (10:21.05)
18. Mr. Kiss Kiss Band Bang [Mono] (02:41.70)
 
Exact Audio Copy V0.99 prebeta 5 from 4. May 2009

Отчёт EAC об извлечении, выполненном 5. октября 2010, 16:16

John Barry / Thunderball

Дисковод: TSSTcorpCDDVDW SH-S202H Adapter: 3 ID: 0

Режим чтения : ДостоверностьИспользование точного потока : ДаОтключение кэша аудио : ДаИспользование указателей C2 : Нет

Коррекция смещения при чтении : 6Способность читать области Lead-in и Lead-out : НетЗаполнение пропущенных сэмплов тишиной : ДаУдаление блоков с тишиной в начале и конце : НетПри вычислениях CRC использовались нулевые сэмплы : ДаИнтерфейс : Встроенный Win32-интерфейс для Win NT/2000

Выходной формат : Внутренние WAV-операцииФормат сэмплов : 44.100 Гц; 16 бит; стерео

TOC извлечённого CD

Трек | Старт | Длительность | Начальный сектор | Конечный сектор --------------------------------------------------------------------- 1 | 0:00.00 | 3:03.47 | 0 | 13771 2 | 3:03.47 | 2:31.00 | 13772 | 25096 3 | 5:34.47 | 2:42.43 | 25097 | 37289 4 | 8:17.15 | 2:48.17 | 37290 | 49906 5 | 11:05.32 | 5:45.20 | 49907 | 75801 6 | 16:50.52 | 3:45.58 | 75802 | 92734 7 | 20:36.35 | 3:57.15 | 92735 | 110524 8 | 24:33.50 | 2:31.02 | 110525 | 121851 9 | 27:04.52 | 4:05.08 | 121852 | 140234 10 | 31:09.60 | 2:24.50 | 140235 | 151084 11 | 33:34.35 | 2:27.37 | 151085 | 162146 12 | 36:01.72 | 3:18.18 | 162147 | 177014 13 | 39:20.15 | 4:43.25 | 177015 | 198264 14 | 44:03.40 | 8:18.12 | 198265 | 235626 15 | 52:21.52 | 3:23.33 | 235627 | 250884 16 | 55:45.10 | 10:15.40 | 250885 | 297049 17 | 66:00.50 | 10:21.05 | 297050 | 343629 18 | 76:21.55 | 2:41.70 | 343630 | 355774

Характеристики диапазона извлечения и сообщения об ошибках

Выбранный диапазон

Имя файла C:\Torrent\Мои раздачи\James Bond Collection\04. Thunderball (1965)\John Barry - Thunderball.wav

Пиковый уровень 96.5 % Качество диапазона 100.0 % CRC теста 24D3D6D0 CRC копии 24D3D6D0 Копирование... OK

Ошибок не произошло

AccurateRip: сводка

Трек 1 точное извлечение (доверие 15) [59C86C9B]Трек 2 точное извлечение (доверие 15) [16A06E7B]Трек 3 точное извлечение (доверие 15) [4BA76067]Трек 4 точное извлечение (доверие 15) [6E5171D4]Трек 5 точное извлечение (доверие 15) [1969D69F]Трек 6 точное извлечение (доверие 15) [A53D097A]Трек 7 точное извлечение (доверие 15) [F004A7B3]Трек 8 точное извлечение (доверие 15) [5C7A4C45]Трек 9 точное извлечение (доверие 15) [6E039841]Трек 10 точное извлечение (доверие 15) [6BF0B7E0]Трек 11 точное извлечение (доверие 15) [F045F830]Трек 12 точное извлечение (доверие 15) [8EE22A63]Трек 13 точное извлечение (доверие 15) [A3CF7C7D]Трек 14 точное извлечение (доверие 15) [FEEF30A8]Трек 15 точное извлечение (доверие 15) [0F91AA1C]Трек 16 точное извлечение (доверие 15) [BD619709]Трек 17 точное извлечение (доверие 15) [16BD1B26]Трек 18 точное извлечение (доверие 14) [D325D552]

Все треки извлечены точно

Конец отчёта
Продолжительность: 72.44
Композитор: John Barry
Страна-производитель диска: USA
Издатель (лейбл): EMI/Capitol

Треклист:
01. You Only Live Twice – Title Song (02:45.72)
Performed by Nancy Sinatra
02. Capsule In Space (02:42.23)
03. Fight At Kobe Dock - Helga (04:01.17)
04. Tanaka's World (02:05.25)
05. A Drop In The Ocean (02:58.05)
06. The Death Of Aki (04:19.60)
07. Mountains And Sunsets (03:09.60)
08. The Wedding (02:45.58)
09. James Bond - Astronaut? (03:29.70)
10. Countdown For Blofeld (02:37.40)
11. Bond Averts World War Tree (02:17.57)
12. You Only Live Twice – End Title (03:33.13])
Performed by Nancy Sinatra
13. James Bond In Japan (10:41.12)
14. Aki, Tiger And Osato (05:43.40)
15. Little Nellie (03:45.30)
16. Soviet Capsule (02:05.55)
17. Spectre And Village (03:46.05)
18. James Bond - Ninja (07:06.33)
19. Twice Is The Only Way To Live (02:49.62)
 
Exact Audio Copy V0.99 prebeta 5 from 4. May 2009

Отчёт EAC об извлечении, выполненном 12. сентября 2010, 17:05

John Barry / You Only Live Twice

Дисковод: TSSTcorpCDDVDW SH-S202H Adapter: 3 ID: 0

Режим чтения : ДостоверностьИспользование точного потока : ДаОтключение кэша аудио : ДаИспользование указателей C2 : Нет

Коррекция смещения при чтении : 6Способность читать области Lead-in и Lead-out : НетЗаполнение пропущенных сэмплов тишиной : ДаУдаление блоков с тишиной в начале и конце : НетПри вычислениях CRC использовались нулевые сэмплы : ДаИнтерфейс : Встроенный Win32-интерфейс для Win NT/2000

Выходной формат : Внутренние WAV-операцииФормат сэмплов : 44.100 Гц; 16 бит; стерео

TOC извлечённого CD

Трек | Старт | Длительность | Начальный сектор | Конечный сектор --------------------------------------------------------------------- 1 | 0:00.00 | 2:45.72 | 0 | 12446 2 | 2:45.72 | 2:42.23 | 12447 | 24619 3 | 5:28.20 | 4:01.17 | 24620 | 42711 4 | 9:29.37 | 2:05.25 | 42712 | 52111 5 | 11:34.62 | 2:58.05 | 52112 | 65466 6 | 14:32.67 | 4:19.60 | 65467 | 84951 7 | 18:52.52 | 3:09.60 | 84952 | 99186 8 | 22:02.37 | 2:45.58 | 99187 | 111619 9 | 24:48.20 | 3:29.70 | 111620 | 127364 10 | 28:18.15 | 2:37.40 | 127365 | 139179 11 | 30:55.55 | 2:17.57 | 139180 | 149511 12 | 33:13.37 | 3:33.13 | 149512 | 165499 13 | 36:46.50 | 10:41.12 | 165500 | 213586 14 | 47:27.62 | 5:43.40 | 213587 | 239351 15 | 53:11.27 | 3:45.30 | 239352 | 256256 16 | 56:56.57 | 2:05.55 | 256257 | 265686 17 | 59:02.37 | 3:46.05 | 265687 | 282641 18 | 62:48.42 | 7:06.33 | 282642 | 314624 19 | 69:55.00 | 2:49.62 | 314625 | 327361

Характеристики диапазона извлечения и сообщения об ошибках

Выбранный диапазон

Имя файла C:\Torrent\Мои раздачи\James Bond Collection\05. You Only Live Twice (1967)\John Barry - You Only Live Twice.wav

Пиковый уровень 94.4 % Качество диапазона 100.0 % CRC теста 57D01A25 CRC копии 57D01A25 Копирование... OK

Ошибок не произошло

AccurateRip: сводка

Трек 1 точное извлечение (доверие 18) [C84C18DA]Трек 2 точное извлечение (доверие 18) [0423803A]Трек 3 точное извлечение (доверие 18) [E9EEE1EE]Трек 4 точное извлечение (доверие 18) [62ABE878]Трек 5 точное извлечение (доверие 18) [23337B33]Трек 6 точное извлечение (доверие 18) [8411C606]Трек 7 точное извлечение (доверие 18) [3A69A810]Трек 8 точное извлечение (доверие 18) [AAAA2235]Трек 9 точное извлечение (доверие 18) [CFBB776F]Трек 10 точное извлечение (доверие 18) [C44B402D]Трек 11 точное извлечение (доверие 18) [04E1E669]Трек 12 точное извлечение (доверие 18) [05A080AF]Трек 13 точное извлечение (доверие 18) [469FA9F1]Трек 14 точное извлечение (доверие 18) [6FDCFE84]Трек 15 точное извлечение (доверие 18) [62DC4D5F]Трек 16 точное извлечение (доверие 18) [05EE6206]Трек 17 точное извлечение (доверие 18) [3EF44A78]Трек 18 точное извлечение (доверие 18) [2007A0E3]Трек 19 точное извлечение (доверие 18) [CBC8BFC3]

Все треки извлечены точно

Конец отчёта
Продолжительность: 79.46
Композитор: John Barry
Страна-производитель диска: USA
Издатель (лейбл): EMI/Capitol

Треклист:
01. We Have All The Time In The World (03:15.42])
Performed by Louis Armstrong
02. This Never Happened To The Other Feller (05:06.08)
03. Try (03:26.70)
04. Ski Chase (03:39.27)
05. Do You Know How Christmas Trees Are Grown? (03:21.45)
Performed by Nina
06. Main Theme - On Her Majesty's Secret Service (02:35.45)
07. Journey To Blofeld's Hideaway (04:53.35)
08. We Have All The Time In The World (02:59.68)
09. Over And Out (03:11.57)
10. Battle At Piz Gloria (04:03.18)
11. We Have All The Time In The World – James Bond Theme (04:38.50)
12. Journey To Draco's Hideaway (03:41.12)
13. Bond And Draco (04:34.33)
14. Gumbold's Safe (04:59.30)
15. Bond Settles In (02:16.67)
16. Bond Meets The Girls (03:27.05)
17. Dusk At Piz Gloria (02:32.40)
18. Sir Hillary's Night Out (Who Will Buy My Yesterdays?) (04:46.60)
19. Blofeld's Plot (05:19.33)
20. Escape From Piz Gloria (04:53.10)
21. Bobsled Chase (02:03.62)
 
Exact Audio Copy V0.99 prebeta 5 from 4. May 2009

Отчёт EAC об извлечении, выполненном 12. сентября 2010, 17:27

John Barry / On Her Majesty's Secret Service

Дисковод: TSSTcorpCDDVDW SH-S202H Adapter: 3 ID: 0

Режим чтения : ДостоверностьИспользование точного потока : ДаОтключение кэша аудио : ДаИспользование указателей C2 : Нет

Коррекция смещения при чтении : 6Способность читать области Lead-in и Lead-out : НетЗаполнение пропущенных сэмплов тишиной : ДаУдаление блоков с тишиной в начале и конце : НетПри вычислениях CRC использовались нулевые сэмплы : ДаИнтерфейс : Встроенный Win32-интерфейс для Win NT/2000

Выходной формат : Внутренние WAV-операцииФормат сэмплов : 44.100 Гц; 16 бит; стерео

TOC извлечённого CD

Трек | Старт | Длительность | Начальный сектор | Конечный сектор --------------------------------------------------------------------- 1 | 0:00.00 | 3:15.42 | 0 | 14666 2 | 3:15.42 | 5:06.08 | 14667 | 37624 3 | 8:21.50 | 3:26.70 | 37625 | 53144 4 | 11:48.45 | 3:39.27 | 53145 | 69596 5 | 15:27.72 | 3:21.45 | 69597 | 84716 6 | 18:49.42 | 2:35.45 | 84717 | 96386 7 | 21:25.12 | 4:53.35 | 96387 | 118396 8 | 26:18.47 | 2:59.68 | 118397 | 131889 9 | 29:18.40 | 3:11.57 | 131890 | 146271 10 | 32:30.22 | 4:03.18 | 146272 | 164514 11 | 36:33.40 | 4:38.50 | 164515 | 185414 12 | 41:12.15 | 3:41.12 | 185415 | 202001 13 | 44:53.27 | 4:34.33 | 202002 | 222584 14 | 49:27.60 | 4:59.30 | 222585 | 245039 15 | 54:27.15 | 2:16.67 | 245040 | 255306 16 | 56:44.07 | 3:27.05 | 255307 | 270836 17 | 60:11.12 | 2:32.40 | 270837 | 282276 18 | 62:43.52 | 4:46.60 | 282277 | 303786 19 | 67:30.37 | 5:19.33 | 303787 | 327744 20 | 72:49.70 | 4:53.10 | 327745 | 349729 21 | 77:43.05 | 2:03.62 | 349730 | 359016

Характеристики диапазона извлечения и сообщения об ошибках

Выбранный диапазон

Имя файла C:\Torrent\Мои раздачи\James Bond Collection\06. On Her Majesty's Secret Service (1969)\John Barry - On Her Majesty's Secret Service.wav

Пиковый уровень 100.0 % Качество диапазона 100.0 % CRC теста BAF813A5 CRC копии BAF813A5 Копирование... OK

Ошибок не произошло

AccurateRip: сводка

Трек 1 точное извлечение (доверие 20) [19DF90E6]Трек 2 точное извлечение (доверие 19) [E84E99D2]Трек 3 точное извлечение (доверие 19) [F2B4DABE]Трек 4 точное извлечение (доверие 19) [DA0458A5]Трек 5 точное извлечение (доверие 19) [7BD27A11]Трек 6 точное извлечение (доверие 19) [DFAE2672]Трек 7 точное извлечение (доверие 19) [26F1B5C3]Трек 8 точное извлечение (доверие 19) [647311A6]Трек 9 точное извлечение (доверие 19) [632A0944]Трек 10 точное извлечение (доверие 19) [75D5FE13]Трек 11 точное извлечение (доверие 19) [02D1BAA4]Трек 12 точное извлечение (доверие 19) [F01C42EC]Трек 13 точное извлечение (доверие 19) [0CFE4177]Трек 14 точное извлечение (доверие 19) [6421FFC6]Трек 15 точное извлечение (доверие 19) [F755C4C3]Трек 16 точное извлечение (доверие 19) [9B812299]Трек 17 точное извлечение (доверие 19) [733A8C53]Трек 18 точное извлечение (доверие 19) [288C2C7C]Трек 19 точное извлечение (доверие 19) [9DF086DA]Трек 20 точное извлечение (доверие 19) [5C5DB7BC]Трек 21 точное извлечение (доверие 19) [EC68F66F]

Все треки извлечены точно

Конец отчёта
Продолжительность: 75.48
Композитор: John Barry
Страна-производитель диска: EU (Belgium)
Издатель (лейбл): EMI/Capitol

Треклист:
01. Diamonds Are Forever (Main Title) (02:52.65)
Performed by Shirley Bassey
02. Bond Meets Bambi And Thumper (03:09.35)
03. Moon Buggy Ride (04:16.57)
04. Circus, Circus (02:50.13)
05. Death At The Whyte House (04:53.67)
06. Diamonds Are Forever (Source Instrumental) (03:45.03)
07. Diamonds Are Forever (Bond And Tiffany) (03:39.35)
08. Bond Smells A Rat (01:52.55)
09. Tiffany Case (03:46.17)
10. 007 And Counting (03:31.33)
11. Q's Trick (02:26.05)
12. To Hell With Blofeld (05:09.25)
13. Gunbarrel And Manhunt (03:11.47)
14. Mr. Wint And Mr. Kidd/Bond To Holland (04:03.33)
15. Peter Franks (02:55.22)
16. Airport Source/On The Road (03:00.70)
17. Slumber, Inc. (02:22.58)
18. The Whyte House (02:21.60)
19. Plenty, Then Tiffany (02:26.57)
20. Following The Diamonds (04:03.25)
21. Additional And Alternate Cues (09:09.05)
 
Exact Audio Copy V0.99 prebeta 5 from 4. May 2009

Отчёт EAC об извлечении, выполненном 12. сентября 2010, 18:16

John Barry / Diamonds Are Forever

Дисковод: TSSTcorpCDDVDW SH-S202H Adapter: 3 ID: 0

Режим чтения : ДостоверностьИспользование точного потока : ДаОтключение кэша аудио : ДаИспользование указателей C2 : Нет

Коррекция смещения при чтении : 6Способность читать области Lead-in и Lead-out : НетЗаполнение пропущенных сэмплов тишиной : ДаУдаление блоков с тишиной в начале и конце : НетПри вычислениях CRC использовались нулевые сэмплы : ДаИнтерфейс : Встроенный Win32-интерфейс для Win NT/2000

Выходной формат : Внутренние WAV-операцииФормат сэмплов : 44.100 Гц; 16 бит; стерео

TOC извлечённого CD

Трек | Старт | Длительность | Начальный сектор | Конечный сектор --------------------------------------------------------------------- 1 | 0:00.00 | 2:52.65 | 0 | 12964 2 | 2:52.65 | 3:09.35 | 12965 | 27174 3 | 6:02.25 | 4:16.57 | 27175 | 46431 4 | 10:19.07 | 2:50.13 | 46432 | 59194 5 | 13:09.20 | 4:53.67 | 59195 | 81236 6 | 18:03.12 | 3:45.03 | 81237 | 98114 7 | 21:48.15 | 3:39.35 | 98115 | 114574 8 | 25:27.50 | 1:52.55 | 114575 | 123029 9 | 27:20.30 | 3:46.17 | 123030 | 139996 10 | 31:06.47 | 3:31.33 | 139997 | 155854 11 | 34:38.05 | 2:26.05 | 155855 | 166809 12 | 37:04.10 | 5:09.25 | 166810 | 190009 13 | 42:13.35 | 3:11.47 | 190010 | 204381 14 | 45:25.07 | 4:03.33 | 204382 | 222639 15 | 49:28.40 | 2:55.22 | 222640 | 235786 16 | 52:23.62 | 3:00.70 | 235787 | 249356 17 | 55:24.57 | 2:22.58 | 249357 | 260064 18 | 57:47.40 | 2:21.60 | 260065 | 270699 19 | 60:09.25 | 2:26.57 | 270700 | 281706 20 | 62:36.07 | 4:03.25 | 281707 | 299956 21 | 66:39.32 | 9:09.05 | 299957 | 341136

Характеристики диапазона извлечения и сообщения об ошибках

Выбранный диапазон

Имя файла C:\Torrent\Мои раздачи\James Bond Collection\07. Diamonds Are Forever (1971)\John Barry - Diamonds Are Forever.wav

Пиковый уровень 99.8 % Качество диапазона 100.0 % CRC теста 7F8AAFFE CRC копии 7F8AAFFE Копирование... OK

Ошибок не произошло

AccurateRip: сводка

Трек 1 точное извлечение (доверие 6) [0FDB2401]Трек 2 точное извлечение (доверие 7) [B6861AC0]Трек 3 точное извлечение (доверие 7) [B8261267]Трек 4 точное извлечение (доверие 7) [3D7609E2]Трек 5 точное извлечение (доверие 7) [66129519]Трек 6 точное извлечение (доверие 7) [889C4EB4]Трек 7 точное извлечение (доверие 7) [697ACC36]Трек 8 точное извлечение (доверие 7) [627ADA28]Трек 9 точное извлечение (доверие 7) [90C24F51]Трек 10 точное извлечение (доверие 7) [762C1883]Трек 11 точное извлечение (доверие 7) [A402A739]Трек 12 точное извлечение (доверие 7) [B6165817]Трек 13 точное извлечение (доверие 7) [70F0BB81]Трек 14 точное извлечение (доверие 7) [307E2CDE]Трек 15 точное извлечение (доверие 7) [ABBCC4C3]Трек 16 точное извлечение (доверие 7) [8669D298]Трек 17 точное извлечение (доверие 7) [14C77BBD]Трек 18 точное извлечение (доверие 7) [FD5CADF0]Трек 19 точное извлечение (доверие 7) [E394752A]Трек 20 точное извлечение (доверие 7) [ACC75286]Трек 21 точное извлечение (доверие 7) [EA76DEB6]

Все треки извлечены точно

Конец отчёта
Продолжительность: 56.32
Композитор: George Martin
Страна-производитель диска: USA
Издатель (лейбл): EMI/Capitol

Треклист:
01. Live And Let Die (Main Title) (03:12.57)
Performed by Paul McCartney & Wings
02. Just A Closer Walk With Thee/New Second Line (02:15.55)
Performed by Harold A. “Duke” Dejan & The Olympia Brass Band
03. Bond Meets Solitaire (02:41.03)
04. Whisper Who Dares (01:43.32)
05. Snakes Alive (02:41.38)
06. Baron Samedi's Dance Of Death (01:42.22)
07. San Monique (01:57.30)
08. Fillet Of Soul - New Orleans/Live And Let Die/Filet Of Soul - Harlem (03:20.38)
Performed by B.J. Arnau
09. Bond Drops In (03:34.35)
10. If He Finds It, Kill Him (01:20.17)
11. Trespassers Will Be Eaten (02:45.25)
12. Solitaire Gets Her Cards (01:50.70)
13. Sacrifice (03:21.23)
14. James Bond Theme (01:47.50)
15. Gunbarrel / Snakebit (01:31.02)
16. Bond To New York (02:47.30)
17. San Monique (Alternate) (02:46.63)
18. Bond And Rosie (03:51.05)
19. The Lovers (02:09.20)
20. New Orleans (02:53.62)
21. Boat Chase (02:01.48)
22. Underground Lair (04:17.20)
 
Exact Audio Copy V0.99 prebeta 5 from 4. May 2009

Отчёт EAC об извлечении, выполненном 12. сентября 2010, 18:33

George Martin / Live And Let Die

Дисковод: TSSTcorpCDDVDW SH-S202H Adapter: 3 ID: 0

Режим чтения : ДостоверностьИспользование точного потока : ДаОтключение кэша аудио : ДаИспользование указателей C2 : Нет

Коррекция смещения при чтении : 6Способность читать области Lead-in и Lead-out : НетЗаполнение пропущенных сэмплов тишиной : ДаУдаление блоков с тишиной в начале и конце : НетПри вычислениях CRC использовались нулевые сэмплы : ДаИнтерфейс : Встроенный Win32-интерфейс для Win NT/2000

Выходной формат : Внутренние WAV-операцииФормат сэмплов : 44.100 Гц; 16 бит; стерео

TOC извлечённого CD

Трек | Старт | Длительность | Начальный сектор | Конечный сектор --------------------------------------------------------------------- 1 | 0:00.00 | 3:12.57 | 0 | 14456 2 | 3:12.57 | 2:15.55 | 14457 | 24636 3 | 5:28.37 | 2:41.03 | 24637 | 36714 4 | 8:09.40 | 1:43.32 | 36715 | 44471 5 | 9:52.72 | 2:41.38 | 44472 | 56584 6 | 12:34.35 | 1:42.22 | 56585 | 64256 7 | 14:16.57 | 1:57.30 | 64257 | 73061 8 | 16:14.12 | 3:20.38 | 73062 | 88099 9 | 19:34.50 | 3:34.35 | 88100 | 104184 10 | 23:09.10 | 1:20.17 | 104185 | 110201 11 | 24:29.27 | 2:45.25 | 110202 | 122601 12 | 27:14.52 | 1:50.70 | 122602 | 130921 13 | 29:05.47 | 3:21.23 | 130922 | 146019 14 | 32:26.70 | 1:47.50 | 146020 | 154094 15 | 34:14.45 | 1:31.02 | 154095 | 160921 16 | 35:45.47 | 2:47.30 | 160922 | 173476 17 | 38:33.02 | 2:46.63 | 173477 | 185989 18 | 41:19.65 | 3:51.05 | 185990 | 203319 19 | 45:10.70 | 2:09.20 | 203320 | 213014 20 | 47:20.15 | 2:53.62 | 213015 | 226051 21 | 50:14.02 | 2:01.48 | 226052 | 235174 22 | 52:15.50 | 4:17.20 | 235175 | 254469

Характеристики диапазона извлечения и сообщения об ошибках

Выбранный диапазон

Имя файла C:\Torrent\Мои раздачи\James Bond Collection\08. Live And Let Die (1973)\George Martin - Live And Let Die.wav

Пиковый уровень 100.0 % Качество диапазона 100.0 % CRC теста D9A5A929 CRC копии D9A5A929 Копирование... OK

Ошибок не произошло

AccurateRip: сводка

Трек 1 точное извлечение (доверие 10) [4485A5E3]Трек 2 точное извлечение (доверие 9) [A0E1C9FD]Трек 3 точное извлечение (доверие 9) [95EA5F91]Трек 4 точное извлечение (доверие 9) [9578FA5C]Трек 5 точное извлечение (доверие 9) [ACCB7C0B]Трек 6 точное извлечение (доверие 9) [BD5E2BAF]Трек 7 точное извлечение (доверие 9) [4F9BC4B3]Трек 8 точное извлечение (доверие 9) [AEBD773C]Трек 9 точное извлечение (доверие 9) [F7B56F91]Трек 10 точное извлечение (доверие 9) [68173709]Трек 11 точное извлечение (доверие 9) [30E62084]Трек 12 точное извлечение (доверие 9) [ABE41164]Трек 13 точное извлечение (доверие 9) [FD777552]Трек 14 точное извлечение (доверие 10) [4C6B706E]Трек 15 точное извлечение (доверие 9) [5FE13AF2]Трек 16 точное извлечение (доверие 9) [ED90B1C7]Трек 17 точное извлечение (доверие 9) [F4254B18]Трек 18 точное извлечение (доверие 9) [ED3E60D0]Трек 19 точное извлечение (доверие 10) [F0969714]Трек 20 точное извлечение (доверие 9) [7C6719F5]Трек 21 точное извлечение (доверие 9) [C34C89FE]Трек 22 точное извлечение (доверие 9) [3485AE0C]

Все треки извлечены точно

Конец отчёта
Продолжительность: 43.08
Композитор: John Barry
Страна-производитель диска: USA
Издатель (лейбл): EMI/Capitol

Треклист:
01. Main Title - The Man With The Golden Gun (02:37.30)
Performed by Lulu
02. Scaramanga's Fun House (04:39.30)
03. Chew Me in Grisly Land (04:01.42)
04. The Man With The Golden Gun (Jazz Instrumental) (02:32.50)
05. Getting The Bullet (02:45.13)
06. Goodnight Goodnight (05:22.62)
07. Let's Go Get 'Em (03:44.38)
08. Hip's Trip (03:21.30)
09. Kung Fu Fight (01:57.67)
10. In Search Of Scaramanga's Island (02:31.40)
11. Return to Scaramanga's Fun House (06:28.13)
12. End Title - The Man With The Golden Gun (03:05.70)
Performed by Lulu
 
Exact Audio Copy V0.99 prebeta 5 from 4. May 2009

Отчёт EAC об извлечении, выполненном 13. сентября 2010, 10:48

John Barry / The Man With The Golden Gun

Дисковод: TSSTcorpCDDVDW SH-S202H Adapter: 3 ID: 0

Режим чтения : ДостоверностьИспользование точного потока : ДаОтключение кэша аудио : ДаИспользование указателей C2 : Нет

Коррекция смещения при чтении : 6Способность читать области Lead-in и Lead-out : НетЗаполнение пропущенных сэмплов тишиной : ДаУдаление блоков с тишиной в начале и конце : НетПри вычислениях CRC использовались нулевые сэмплы : ДаИнтерфейс : Встроенный Win32-интерфейс для Win NT/2000

Выходной формат : Внутренние WAV-операцииФормат сэмплов : 44.100 Гц; 16 бит; стерео

TOC извлечённого CD

Трек | Старт | Длительность | Начальный сектор | Конечный сектор --------------------------------------------------------------------- 1 | 0:00.00 | 2:37.30 | 0 | 11804 2 | 2:37.30 | 4:39.30 | 11805 | 32759 3 | 7:16.60 | 4:01.42 | 32760 | 50876 4 | 11:18.27 | 2:32.50 | 50877 | 62326 5 | 13:51.02 | 2:45.13 | 62327 | 74714 6 | 16:36.15 | 5:22.62 | 74715 | 98926 7 | 21:59.02 | 3:44.38 | 98927 | 115764 8 | 25:43.40 | 3:21.30 | 115765 | 130869 9 | 29:04.70 | 1:57.67 | 130870 | 139711 10 | 31:02.62 | 2:31.40 | 139712 | 151076 11 | 33:34.27 | 6:28.13 | 151077 | 180189 12 | 40:02.40 | 3:05.70 | 180190 | 194134

Характеристики диапазона извлечения и сообщения об ошибках

Выбранный диапазон

Имя файла C:\Torrent\Мои раздачи\James Bond Collection\09. The Man With The Golden Gun (1974)\John Barry - The Man With The Golden Gun.wav

Пиковый уровень 99.9 % Качество диапазона 100.0 % CRC теста 299F56C7 CRC копии 299F56C7 Копирование... OK

Ошибок не произошло

AccurateRip: сводка

Трек 1 точное извлечение (доверие 8) [9D74D7D5]Трек 2 точное извлечение (доверие 7) [2D16F1D6]Трек 3 точное извлечение (доверие 8) [CE847A4F]Трек 4 точное извлечение (доверие 8) [B7E95E09]Трек 5 точное извлечение (доверие 8) [5E4C3800]Трек 6 точное извлечение (доверие 8) [00EC96D7]Трек 7 точное извлечение (доверие 8) [3189F0AA]Трек 8 точное извлечение (доверие 8) [50DC56CE]Трек 9 точное извлечение (доверие 8) [ED23B532]Трек 10 точное извлечение (доверие 8) [3A0FAEE9]Трек 11 точное извлечение (доверие 8) [8FCF81AC]Трек 12 точное извлечение (доверие 8) [807B685B]

Все треки извлечены точно

Конец отчёта
Продолжительность: 36.20
Композитор: Marvin Hamlisch
Страна-производитель диска: EU (Belgium)
Издатель (лейбл): EMI/Capitol

Треклист:
01. Nobody Does It Better (03:31.15)
Performed by Carly Simon
02. Bond 77 (04:22.47)
03. Ride to Atlantis (03:30.650
04. Mojave Club (02:15.10)
05. Nobody Does It Better (Instrumental) (04:47.23)
06. Anya (03:22.72)
07. The Tanker (04:26.25)
08. The Pyramids (01:28.38)
09. Eastern Lights (03:39.02)
10. Conclusion (01:31.25)
11. End Titles - Nobody Does It Better (03:25.13)
Performed by Carly Simon
 
Exact Audio Copy V0.99 prebeta 5 from 4. May 2009

Отчёт EAC об извлечении, выполненном 13. сентября 2010, 11:29

Marvin Hamlisch / The Spy Who Loved Me

Дисковод: TSSTcorpCDDVDW SH-S202H Adapter: 3 ID: 0

Режим чтения : ДостоверностьИспользование точного потока : ДаОтключение кэша аудио : ДаИспользование указателей C2 : Нет

Коррекция смещения при чтении : 6Способность читать области Lead-in и Lead-out : НетЗаполнение пропущенных сэмплов тишиной : ДаУдаление блоков с тишиной в начале и конце : НетПри вычислениях CRC использовались нулевые сэмплы : ДаИнтерфейс : Встроенный Win32-интерфейс для Win NT/2000

Выходной формат : Внутренние WAV-операцииФормат сэмплов : 44.100 Гц; 16 бит; стерео

TOC извлечённого CD

Трек | Старт | Длительность | Начальный сектор | Конечный сектор --------------------------------------------------------------------- 1 | 0:00.00 | 3:31.15 | 0 | 15839 2 | 3:31.15 | 4:22.47 | 15840 | 35536 3 | 7:53.62 | 3:30.65 | 35537 | 51351 4 | 11:24.52 | 2:15.10 | 51352 | 61486 5 | 13:39.62 | 4:47.23 | 61487 | 83034 6 | 18:27.10 | 3:22.72 | 83035 | 98256 7 | 21:50.07 | 4:26.25 | 98257 | 118231 8 | 26:16.32 | 1:28.38 | 118232 | 124869 9 | 27:44.70 | 3:39.02 | 124870 | 141296 10 | 31:23.72 | 1:31.25 | 141297 | 148146 11 | 32:55.22 | 3:25.13 | 148147 | 163534

Характеристики диапазона извлечения и сообщения об ошибках

Выбранный диапазон

Имя файла C:\Torrent\Мои раздачи\James Bond Collection\10. The Spy Who Loved Me (1977)\Marvin Hamlisch - The Spy Who Loved Me.wav

Пиковый уровень 99.9 % Качество диапазона 100.0 % CRC теста 187E971F CRC копии 187E971F Копирование... OK

Ошибок не произошло

AccurateRip: сводка

Трек 1 точное извлечение (доверие 6) [B6F871D9]Трек 2 точное извлечение (доверие 6) [8155E415]Трек 3 точное извлечение (доверие 6) [697FEACC]Трек 4 точное извлечение (доверие 6) [CE3BEF20]Трек 5 точное извлечение (доверие 6) [874793E9]Трек 6 точное извлечение (доверие 6) [35B39A52]Трек 7 точное извлечение (доверие 6) [719E60BA]Трек 8 точное извлечение (доверие 6) [3691FB30]Трек 9 точное извлечение (доверие 6) [08D12A0B]Трек 10 точное извлечение (доверие 6) [FD3A5A56]Трек 11 точное извлечение (доверие 6) [E475DAB0]

Все треки извлечены точно

Конец отчёта
Продолжительность: 30.50
Композитор: John Barry
Страна-производитель диска: EU (Belgium)
Издатель (лейбл): EMI/Capitol

Треклист:
01. Main Title – Moonraker (03:11.40)
Performed by Shirley Bassey
02. Space Lazer Battle (02:49.47)
03. Miss Goodhead Meets Bond (02:49.20)
04. Cable Car And Snake Fight (03:09.48)
05. Bond Lured To Pyramid (02:07.37)
06. Flight Into Space (06:31.63)
07. Bond Arrives In Rio And Boat Chase (02:39.45)
08. Centrifuge And Corinne Put Down (02:37.00)
09. Bond Smells A Rat (02:25.72)
10. End Title – Moonraker (02:28.60)
Performed by Shirley Bassey
 
Exact Audio Copy V0.99 prebeta 5 from 4. May 2009

Отчёт EAC об извлечении, выполненном 13. сентября 2010, 12:05

John Barry / Moonraker

Дисковод: TSSTcorpCDDVDW SH-S202H Adapter: 3 ID: 0

Режим чтения : ДостоверностьИспользование точного потока : ДаОтключение кэша аудио : ДаИспользование указателей C2 : Нет

Коррекция смещения при чтении : 6Способность читать области Lead-in и Lead-out : НетЗаполнение пропущенных сэмплов тишиной : ДаУдаление блоков с тишиной в начале и конце : НетПри вычислениях CRC использовались нулевые сэмплы : ДаИнтерфейс : Встроенный Win32-интерфейс для Win NT/2000

Выходной формат : Внутренние WAV-операцииФормат сэмплов : 44.100 Гц; 16 бит; стерео

TOC извлечённого CD

Трек | Старт | Длительность | Начальный сектор | Конечный сектор --------------------------------------------------------------------- 1 | 0:00.00 | 3:11.40 | 0 | 14364 2 | 3:11.40 | 2:49.47 | 14365 | 27086 3 | 6:01.12 | 2:49.20 | 27087 | 39781 4 | 8:50.32 | 3:09.48 | 39782 | 54004 5 | 12:00.05 | 2:07.37 | 54005 | 63566 6 | 14:07.42 | 6:31.63 | 63567 | 92954 7 | 20:39.30 | 2:39.45 | 92955 | 104924 8 | 23:19.00 | 2:37.00 | 104925 | 116699 9 | 25:56.00 | 2:25.72 | 116700 | 127646 10 | 28:21.72 | 2:28.60 | 127647 | 138806

Характеристики диапазона извлечения и сообщения об ошибках

Выбранный диапазон

Имя файла C:\Torrent\Мои раздачи\James Bond Collection\11. Moonraker (1979)\John Barry - Moonraker.wav

Пиковый уровень 99.9 % Качество диапазона 100.0 % CRC теста 67BDF495 CRC копии 67BDF495 Копирование... OK

Ошибок не произошло

AccurateRip: сводка

Трек 1 точное извлечение (доверие 10) [22EB5FD9]Трек 2 точное извлечение (доверие 10) [0905FBAB]Трек 3 точное извлечение (доверие 10) [A2F80730]Трек 4 точное извлечение (доверие 10) [75D3981F]Трек 5 точное извлечение (доверие 10) [9FE29D02]Трек 6 точное извлечение (доверие 10) [91953995]Трек 7 точное извлечение (доверие 10) [37223D6C]Трек 8 точное извлечение (доверие 10) [4F88C5DC]Трек 9 точное извлечение (доверие 9) [F73E1272]Трек 10 точное извлечение (доверие 9) [71B3FB93]

Все треки извлечены точно

Конец отчёта
Продолжительность: 58.56
Композитор: Bill Conti
Страна-производитель диска: EU (Belgium)
Издатель (лейбл): EMI/Capitol

Треклист:
01. For Your Eyes Only (03:07.35)
Performed by Sheena Easton
02. A Drive In The Country [0:02:25.37]
03. Take Me Home [0:02:32.38]
Flugelhorn solo by Eddie Blair
04. Melina's Revenge (02:18.00)
05. Gonzales Takes A Dive (03:14.37)
06. St. Cyril's Monastery (04:40.00)
07. Make It Last All Night (03:31.38)
Performed by Rage
08. Runaway (03:54.00)
09. Submarine (02:39.37)
10. For Your Eyes Only (01:35.00)
Flugelhorn solo by Derek Watkins
11. Cortina (01:45.38)
12. The P.M. Gets The Bird / For Your Eyes Only (Reprise) (05:05.37)
Performed by Sheena Easton
13. Gunbarrel / Flowers For Teresa / Sinking The St. Georges (02:54.38)
14. Unfinished Business / Bond Meets Kristatos (01:53.27)
15. Ski… Shoot… Jump... (05:16.18)
16. Goodbye Countess / No Head For Heights / Dining Alone (03:20.50)
17. Recovering The ATAC (02:28.52)
18. Sub Vs. Sub (03:16.03)
19. Run Them Down / The Climb (02:58.25)
 
Exact Audio Copy V0.99 prebeta 5 from 4. May 2009

Отчёт EAC об извлечении, выполненном 13. сентября 2010, 12:53

Bill Conti / For Your Eyes Only

Дисковод: TSSTcorpCDDVDW SH-S202H Adapter: 3 ID: 0

Режим чтения : ДостоверностьИспользование точного потока : ДаОтключение кэша аудио : ДаИспользование указателей C2 : Нет

Коррекция смещения при чтении : 6Способность читать области Lead-in и Lead-out : НетЗаполнение пропущенных сэмплов тишиной : ДаУдаление блоков с тишиной в начале и конце : НетПри вычислениях CRC использовались нулевые сэмплы : ДаИнтерфейс : Встроенный Win32-интерфейс для Win NT/2000

Выходной формат : Внутренние WAV-операцииФормат сэмплов : 44.100 Гц; 16 бит; стерео

TOC извлечённого CD

Трек | Старт | Длительность | Начальный сектор | Конечный сектор --------------------------------------------------------------------- 1 | 0:00.00 | 3:07.35 | 0 | 14059 2 | 3:07.35 | 2:25.37 | 14060 | 24971 3 | 5:32.72 | 2:32.38 | 24972 | 36409 4 | 8:05.35 | 2:18.00 | 36410 | 46759 5 | 10:23.35 | 3:14.37 | 46760 | 61346 6 | 13:37.72 | 4:40.00 | 61347 | 82346 7 | 18:17.72 | 3:31.38 | 82347 | 98209 8 | 21:49.35 | 3:54.00 | 98210 | 115759 9 | 25:43.35 | 2:39.37 | 115760 | 127721 10 | 28:22.72 | 1:35.00 | 127722 | 134846 11 | 29:57.72 | 1:45.38 | 134847 | 142759 12 | 31:43.35 | 5:05.37 | 142760 | 165671 13 | 36:48.72 | 2:54.38 | 165672 | 178759 14 | 39:43.35 | 1:53.27 | 178760 | 187261 15 | 41:36.62 | 5:16.18 | 187262 | 210979 16 | 46:53.05 | 3:20.50 | 210980 | 226029 17 | 50:13.55 | 2:28.52 | 226030 | 237181 18 | 52:42.32 | 3:16.03 | 237182 | 251884 19 | 55:58.35 | 2:58.25 | 251885 | 265259

Характеристики диапазона извлечения и сообщения об ошибках

Выбранный диапазон

Имя файла C:\Torrent\Мои раздачи\James Bond Collection\12. For You Eyes Only (1981)\Bill Conti - For Your Eyes Only.wav

Пиковый уровень 99.9 % Качество диапазона 99.9 % CRC теста 9CBB48B1 CRC копии 9CBB48B1 Копирование... OK

Ошибок не произошло

AccurateRip: сводка

Трек 1 точное извлечение (доверие 5) [8E929327]Трек 2 точное извлечение (доверие 6) [C49CB158]Трек 3 точное извлечение (доверие 5) [D6F9E75C]Трек 4 точное извлечение (доверие 5) [8D6526F6]Трек 5 точное извлечение (доверие 6) [E7719F69]Трек 6 точное извлечение (доверие 6) [9599CF31]Трек 7 точное извлечение (доверие 6) [CB87EC50]Трек 8 точное извлечение (доверие 6) [8B4361C2]Трек 9 точное извлечение (доверие 6) [80851C17]Трек 10 точное извлечение (доверие 6) [A21B4E50]Трек 11 точное извлечение (доверие 6) [7DDDDE00]Трек 12 точное извлечение (доверие 6) [A7E77621]Трек 13 точное извлечение (доверие 6) [01B98CC2]Трек 14 точное извлечение (доверие 6) [72A9A9B7]Трек 15 точное извлечение (доверие 6) [9EBFDE77]Трек 16 точное извлечение (доверие 6) [BB4369E6]Трек 17 точное извлечение (доверие 6) [87647CFA]Трек 18 точное извлечение (доверие 6) [9C191706]Трек 19 точное извлечение (доверие 6) [A469FD83]

Все треки извлечены точно

Конец отчёта
Продолжительность: 36.06
Композитор: John Barry
Страна-производитель диска: EU (Belgium)
Издатель (лейбл): EMI/Capitol

Треклист:
01. All Time High (03:05.35)
Performed by Rita Coolidge
02. Bond Look-Alike (03:01.35)
03. 009 Gets The Knife And Gobinda Attacks (03:09.02)
04. That's My Little Octopussy (03:15.33)
05. Arrival At The Island Of Octopussy (03:26.40)
06. Bond At The Monsoon Palace (03:06.35)
07. Bond Meets Octopussy (03:38.40)
08. Yo-yo Fight And Death Of Vijay (03:47.02)
09. The Chase Bomb Theme (01:59.00)
10. The Palace Fight (04:34.73)
11. All Time High (03:02.20)
Performed by Rita Coolidge
 
Exact Audio Copy V0.99 prebeta 5 from 4. May 2009

Отчёт EAC об извлечении, выполненном 13. сентября 2010, 13:21

John Barry / Octopussy

Дисковод: TSSTcorpCDDVDW SH-S202H Adapter: 3 ID: 0

Режим чтения : ДостоверностьИспользование точного потока : ДаОтключение кэша аудио : ДаИспользование указателей C2 : Нет

Коррекция смещения при чтении : 6Способность читать области Lead-in и Lead-out : НетЗаполнение пропущенных сэмплов тишиной : ДаУдаление блоков с тишиной в начале и конце : НетПри вычислениях CRC использовались нулевые сэмплы : ДаИнтерфейс : Встроенный Win32-интерфейс для Win NT/2000

Выходной формат : Внутренние WAV-операцииФормат сэмплов : 44.100 Гц; 16 бит; стерео

TOC извлечённого CD

Трек | Старт | Длительность | Начальный сектор | Конечный сектор --------------------------------------------------------------------- 1 | 0:00.00 | 3:05.35 | 0 | 13909 2 | 3:05.35 | 3:01.35 | 13910 | 27519 3 | 6:06.70 | 3:09.02 | 27520 | 41696 4 | 9:15.72 | 3:15.33 | 41697 | 56354 5 | 12:31.30 | 3:26.40 | 56355 | 71844 6 | 15:57.70 | 3:06.35 | 71845 | 85829 7 | 19:04.30 | 3:38.40 | 85830 | 102219 8 | 22:42.70 | 3:47.02 | 102220 | 119246 9 | 26:29.72 | 1:59.00 | 119247 | 128171 10 | 28:28.72 | 4:34.73 | 128172 | 148794 11 | 33:03.70 | 3:02.20 | 148795 | 162464

Характеристики диапазона извлечения и сообщения об ошибках

Выбранный диапазон

Имя файла C:\Torrent\Мои раздачи\James Bond Collection\13. Octopussy (1983)\John Barry - Octopussy.wav

Пиковый уровень 99.9 % Качество диапазона 100.0 % CRC теста 964F5D95 CRC копии 964F5D95 Копирование... OK

Ошибок не произошло

AccurateRip: сводка

Трек 1 точное извлечение (доверие 8) [71D5B539]Трек 2 точное извлечение (доверие 8) [557005C6]Трек 3 точное извлечение (доверие 8) [A1666FC6]Трек 4 точное извлечение (доверие 8) [F98F3603]Трек 5 точное извлечение (доверие 8) [ED3B6408]Трек 6 точное извлечение (доверие 8) [5DBA13CB]Трек 7 точное извлечение (доверие 7) [58FECF36]Трек 8 точное извлечение (доверие 7) [94D0FAFD]Трек 9 точное извлечение (доверие 8) [D1BE05EC]Трек 10 точное извлечение (доверие 8) [E3D68A44]Трек 11 точное извлечение (доверие 7) [C056A491]

Все треки извлечены точно

Конец отчёта
Продолжительность: 38.23
Композитор: John Barry
Страна-производитель диска: EU (Belgium)
Издатель (лейбл): EMI/Capitol

Треклист:
01. A View To A Kill (Main Title Song) (03:36.37)
Performed by Duran Duran
02. Snow Job (02:29.10)
03. May Day Jumps (02:52.08)
04. Bond Meets Stacey (02:31.45)
A View To A Kill
05. Pegasus' Stable (03:23.57)
06. Tibbett Gets Washed Out (01:43.18)
07. Airship To Silicon Valley (02:34.17)
08. He's Dangerous (02:16.40)
09. Bond Underwater (02:35.58)
10. Wine With Stacey (01:55.05)
A View To A Kill
11. Bond Escapes Roller (01:24.40)
12. Destroy Silicon Valley (02:24.07)
13. May Day Bombs Out (03:02.40)
14. Golden Gate Fight (03:31.45)
15. End Title - A View To A Kill (02:02.43)
Performed by Duran Duran
 
Exact Audio Copy V0.99 prebeta 5 from 4. May 2009

Отчёт EAC об извлечении, выполненном 13. сентября 2010, 13:36

John Barry / A View To A Kill

Дисковод: TSSTcorpCDDVDW SH-S202H Adapter: 3 ID: 0

Режим чтения : ДостоверностьИспользование точного потока : ДаОтключение кэша аудио : ДаИспользование указателей C2 : Нет

Коррекция смещения при чтении : 6Способность читать области Lead-in и Lead-out : НетЗаполнение пропущенных сэмплов тишиной : ДаУдаление блоков с тишиной в начале и конце : НетПри вычислениях CRC использовались нулевые сэмплы : ДаИнтерфейс : Встроенный Win32-интерфейс для Win NT/2000

Выходной формат : Внутренние WAV-операцииФормат сэмплов : 44.100 Гц; 16 бит; стерео

TOC извлечённого CD

Трек | Старт | Длительность | Начальный сектор | Конечный сектор --------------------------------------------------------------------- 1 | 0:00.00 | 3:36.37 | 0 | 16236 2 | 3:36.37 | 2:29.10 | 16237 | 27421 3 | 6:05.47 | 2:52.08 | 27422 | 40329 4 | 8:57.55 | 2:31.45 | 40330 | 51699 5 | 11:29.25 | 3:23.57 | 51700 | 66981 6 | 14:53.07 | 1:43.18 | 66982 | 74724 7 | 16:36.25 | 2:34.17 | 74725 | 86291 8 | 19:10.42 | 2:16.40 | 86292 | 96531 9 | 21:27.07 | 2:35.58 | 96532 | 108214 10 | 24:02.65 | 1:55.05 | 108215 | 116844 11 | 25:57.70 | 1:24.40 | 116845 | 123184 12 | 27:22.35 | 2:24.07 | 123185 | 133991 13 | 29:46.42 | 3:02.40 | 133992 | 147681 14 | 32:49.07 | 3:31.45 | 147682 | 163551 15 | 36:20.52 | 2:02.43 | 163552 | 172744

Характеристики диапазона извлечения и сообщения об ошибках

Выбранный диапазон

Имя файла C:\Torrent\Мои раздачи\James Bond Collection\14. A View To A Kill (1985)\John Barry - A View To A Kill.wav

Пиковый уровень 100.0 % Качество диапазона 100.0 % CRC теста FEF473AC CRC копии FEF473AC Копирование... OK

Ошибок не произошло

AccurateRip: сводка

Трек 1 точное извлечение (доверие 8) [3C3E05DE]Трек 2 точное извлечение (доверие 7) [E27A1CF0]Трек 3 точное извлечение (доверие 7) [629C73EE]Трек 4 точное извлечение (доверие 7) [691487A9]Трек 5 точное извлечение (доверие 7) [B6C1AE70]Трек 6 точное извлечение (доверие 7) [7A2C5BC0]Трек 7 точное извлечение (доверие 7) [61D6408A]Трек 8 точное извлечение (доверие 7) [DA87016D]Трек 9 точное извлечение (доверие 7) [0C9C2715]Трек 10 точное извлечение (доверие 7) [42BAD710]Трек 11 точное извлечение (доверие 7) [0B579892]Трек 12 точное извлечение (доверие 6) [1045CF8A]Трек 13 точное извлечение (доверие 7) [AEFF4096]Трек 14 точное извлечение (доверие 6) [E9038DED]Трек 15 точное извлечение (доверие 7) [99B930FC]

Все треки извлечены точно

Конец отчёта
Продолжительность: 65.17
Композитор: John Barry
Страна-производитель диска: EU (Belgium)
Издатель (лейбл): EMI/Capitol

Треклист:
01. The Living Daylights (04:16.32)
Performed by a-ha
02. Necros Attacks (02:04.38)
03. The Sniper Was A Woman (02:30.00)
04. Ice Chase (04:05.35)
05. Kara Meets Bond (02:47.37)
06. Koskov Escapes (02:23.40)
07. Where Has Every Body Gone (03:37.35)
Performed by The Pretenders
08. Into Vienna (02:50.00)
09. Hercules Takes Off (02:17.00)
10. Mujahadin And Opium (03:13.38)
11. Inflight Fight (03:12.40)
12. If There Was A Man (02:53.72)
Performed by The Pretenders
13. Exercises At Gibraltar (06:22.00)
14. Approaching Kara (02:21.38)
15. Murder At The Fair (02:22.00)
16. "Assassin" And Drugged (02:43.37)
17. Airbase Jailbreak (04:37.38)
18. Afghanistan Plan (03:34.37)
19. Air Bond (01:46.00)
20. Final Confrontation (01:58.38)
21. Alternate End Titles (03:20.00)
 
Exact Audio Copy V0.99 prebeta 5 from 4. May 2009

Отчёт EAC об извлечении, выполненном 13. сентября 2010, 13:56

John Barry / The Living Daylights

Дисковод: TSSTcorpCDDVDW SH-S202H Adapter: 3 ID: 0

Режим чтения : ДостоверностьИспользование точного потока : ДаОтключение кэша аудио : ДаИспользование указателей C2 : Нет

Коррекция смещения при чтении : 6Способность читать области Lead-in и Lead-out : НетЗаполнение пропущенных сэмплов тишиной : ДаУдаление блоков с тишиной в начале и конце : НетПри вычислениях CRC использовались нулевые сэмплы : ДаИнтерфейс : Встроенный Win32-интерфейс для Win NT/2000

Выходной формат : Внутренние WAV-операцииФормат сэмплов : 44.100 Гц; 16 бит; стерео

TOC извлечённого CD

Трек | Старт | Длительность | Начальный сектор | Конечный сектор --------------------------------------------------------------------- 1 | 0:00.00 | 4:16.32 | 0 | 19231 2 | 4:16.32 | 2:04.38 | 19232 | 28569 3 | 6:20.70 | 2:30.00 | 28570 | 39819 4 | 8:50.70 | 4:05.35 | 39820 | 58229 5 | 12:56.30 | 2:47.37 | 58230 | 70791 6 | 15:43.67 | 2:23.40 | 70792 | 81556 7 | 18:07.32 | 3:37.35 | 81557 | 97866 8 | 21:44.67 | 2:50.00 | 97867 | 110616 9 | 24:34.67 | 2:17.00 | 110617 | 120891 10 | 26:51.67 | 3:13.38 | 120892 | 135404 11 | 30:05.30 | 3:12.40 | 135405 | 149844 12 | 33:17.70 | 2:53.72 | 149845 | 162891 13 | 36:11.67 | 6:22.00 | 162892 | 191541 14 | 42:33.67 | 2:21.38 | 191542 | 202154 15 | 44:55.30 | 2:22.00 | 202155 | 212804 16 | 47:17.30 | 2:43.37 | 212805 | 225066 17 | 50:00.67 | 4:37.38 | 225067 | 245879 18 | 54:38.30 | 3:34.37 | 245880 | 261966 19 | 58:12.67 | 1:46.00 | 261967 | 269916 20 | 59:58.67 | 1:58.38 | 269917 | 278804 21 | 61:57.30 | 3:20.00 | 278805 | 293804

Характеристики диапазона извлечения и сообщения об ошибках

Выбранный диапазон

Имя файла C:\Torrent\Мои раздачи\James Bond Collection\15. The Living Daylights (1987)\John Barry - The Living Daylights.wav

Пиковый уровень 99.9 % Качество диапазона 100.0 % CRC теста D781034A CRC копии D781034A Копирование... OK

Ошибок не произошло

AccurateRip: сводка

Трек 1 точное извлечение (доверие 13) [ABFE37CD]Трек 2 точное извлечение (доверие 11) [51EDBAF9]Трек 3 точное извлечение (доверие 11) [64674A8B]Трек 4 точное извлечение (доверие 11) [BE7CAA52]Трек 5 точное извлечение (доверие 11) [963B5730]Трек 6 точное извлечение (доверие 11) [C62B01CC]Трек 7 точное извлечение (доверие 12) [41056B98]Трек 8 точное извлечение (доверие 11) [930B6F55]Трек 9 точное извлечение (доверие 11) [0558AFCE]Трек 10 точное извлечение (доверие 11) [5A2A3126]Трек 11 точное извлечение (доверие 11) [3AE7F217]Трек 12 точное извлечение (доверие 11) [3D396616]Трек 13 точное извлечение (доверие 11) [BB535BB8]Трек 14 точное извлечение (доверие 11) [CE6C429C]Трек 15 точное извлечение (доверие 11) [6DC5EB03]Трек 16 точное извлечение (доверие 11) [E320BAE5]Трек 17 точное извлечение (доверие 11) [8D173365]Трек 18 точное извлечение (доверие 12) [4DF8B482]Трек 19 точное извлечение (доверие 11) [1A69997D]Трек 20 точное извлечение (доверие 11) [A31232E4]Трек 21 точное извлечение (доверие 11) [A311246C]

Все треки извлечены точно

Конец отчёта
Продолжительность: 45.37
Композитор: Michael Kamen
Страна-производитель диска: EU
Издатель (лейбл): MCA

Треклист:
01. Licence To Kill (05:16.40)
Performed by Gladys Knight
02. Wedding Party (03:56.47)
Performed by Ivory
03. Dirty Love (03:47.68)
Performed by Tim Feehan
04. Pam (03:52.07)
05. If You Asked Me To (04:01.10)
Performed by Patti LaBelle
06. James And Felix On Their Way To Church (03:54.38)
07. His Funny Valentine (03:26.52)
08. Sanchez Is In The Bahamas / Shark Fishing (02:07.05)
09. Ninja (06:04.35)
10. Licence Revoked (09:10.40)
 
Exact Audio Copy V0.99 prebeta 5 from 4. May 2009

Отчёт EAC об извлечении, выполненном 13. сентября 2010, 14:16

Michael Kamen / Licence To Kill

Дисковод: TSSTcorpCDDVDW SH-S202H Adapter: 3 ID: 0

Режим чтения : ДостоверностьИспользование точного потока : ДаОтключение кэша аудио : ДаИспользование указателей C2 : Нет

Коррекция смещения при чтении : 6Способность читать области Lead-in и Lead-out : НетЗаполнение пропущенных сэмплов тишиной : ДаУдаление блоков с тишиной в начале и конце : НетПри вычислениях CRC использовались нулевые сэмплы : ДаИнтерфейс : Встроенный Win32-интерфейс для Win NT/2000

Выходной формат : Внутренние WAV-операцииФормат сэмплов : 44.100 Гц; 16 бит; стерео

TOC извлечённого CD

Трек | Старт | Длительность | Начальный сектор | Конечный сектор --------------------------------------------------------------------- 1 | 0:00.00 | 5:16.40 | 0 | 23739 2 | 5:16.40 | 3:56.47 | 23740 | 41486 3 | 9:13.12 | 3:47.68 | 41487 | 58579 4 | 13:01.05 | 3:52.07 | 58580 | 75986 5 | 16:53.12 | 4:01.10 | 75987 | 94071 6 | 20:54.22 | 3:54.38 | 94072 | 111659 7 | 24:48.60 | 3:26.52 | 111660 | 127161 8 | 28:15.37 | 2:07.05 | 127162 | 136691 9 | 30:22.42 | 6:04.35 | 136692 | 164026 10 | 36:27.02 | 9:10.40 | 164027 | 205316

Характеристики диапазона извлечения и сообщения об ошибках

Выбранный диапазон

Имя файла C:\Torrent\Мои раздачи\James Bond Collection\16. Licence To Kill (1989)\Michael Kamen - Licence To Kill.wav

Пиковый уровень 96.1 % Качество диапазона 99.9 % CRC теста 201CF3D4 CRC копии 201CF3D4 Копирование... OK

Ошибок не произошло

AccurateRip: сводка

Трек 1 точное извлечение (доверие 2) [ABB9D774]Трек 2 точное извлечение (доверие 2) [B636186E]Трек 3 точное извлечение (доверие 2) [06940B33]Трек 4 точное извлечение (доверие 2) [CA508EF8]Трек 5 точное извлечение (доверие 2) [D90ED4ED]Трек 6 точное извлечение (доверие 2) [7D75660B]Трек 7 точное извлечение (доверие 2) [44A43A3F]Трек 8 точное извлечение (доверие 2) [4165BBE1]Трек 9 точное извлечение (доверие 2) [1DD81066]Трек 10 точное извлечение (доверие 2) [82AB8241]

Все треки извлечены точно

Конец отчёта
Продолжительность: 54.31
Композитор: Eric Serra
Страна-производитель диска: EU (Belgium)
Издатель (лейбл): Virgin

Треклист:
01. GoldenEye (04:48.00)
Performed by Tina Turner
02. The GoldenEye Overture (04:21.40)
03. Ladies First (02:44.47)
04. We Share The Same Passions (04:48.53)
05. A Little Surprise For You (02:02.37)
06. The Severnaya Suite (02:05.68)
07. Our Lady Of Smolensk (01:02.05)
08. Whispering Statues (03:25.10)
09. Run, Shoot, And Jump (01:04.42)
10. A Pleasant Drive In St. Petersburg (04:31.53)
11. Fatal Weakness (04:46.20)
12. That's What Keeps You Alone (03:14.52)
13. Dish Out Of Water (03:55.23)
14. The Scale To Hell (03:43.72)
15. For Ever, James (02:00.70)
16. The Experience Of Love (05:55.08)
Performed by Eric Serra
 
Exact Audio Copy V0.99 prebeta 5 from 4. May 2009

Отчёт EAC об извлечении, выполненном 14. сентября 2010, 11:01

Eric Serra / GoldenEye

Дисковод: TSSTcorpCDDVDW SH-S202H Adapter: 3 ID: 0

Режим чтения : ДостоверностьИспользование точного потока : ДаОтключение кэша аудио : ДаИспользование указателей C2 : Нет

Коррекция смещения при чтении : 6Способность читать области Lead-in и Lead-out : НетЗаполнение пропущенных сэмплов тишиной : ДаУдаление блоков с тишиной в начале и конце : НетПри вычислениях CRC использовались нулевые сэмплы : ДаИнтерфейс : Встроенный Win32-интерфейс для Win NT/2000

Выходной формат : Внутренние WAV-операцииФормат сэмплов : 44.100 Гц; 16 бит; стерео

TOC извлечённого CD

Трек | Старт | Длительность | Начальный сектор | Конечный сектор --------------------------------------------------------------------- 1 | 0:00.00 | 4:48.00 | 0 | 21599 2 | 4:48.00 | 4:21.40 | 21600 | 41214 3 | 9:09.40 | 2:44.47 | 41215 | 53561 4 | 11:54.12 | 4:48.53 | 53562 | 75214 5 | 16:42.65 | 2:02.37 | 75215 | 84401 6 | 18:45.27 | 2:05.68 | 84402 | 93844 7 | 20:51.20 | 1:02.05 | 93845 | 98499 8 | 21:53.25 | 3:25.10 | 98500 | 113884 9 | 25:18.35 | 1:04.42 | 113885 | 118726 10 | 26:23.02 | 4:31.53 | 118727 | 139104 11 | 30:54.55 | 4:46.20 | 139105 | 160574 12 | 35:41.00 | 3:14.52 | 160575 | 175176 13 | 38:55.52 | 3:55.23 | 175177 | 192824 14 | 42:51.00 | 3:43.72 | 192825 | 209621 15 | 46:34.72 | 2:00.70 | 209622 | 218691 16 | 48:35.67 | 5:55.08 | 218692 | 245324

Характеристики диапазона извлечения и сообщения об ошибках

Выбранный диапазон

Имя файла C:\Torrent\Мои раздачи\James Bond Collection\17. GoldenEye (1995)\Eric Serra - GoldenEye.wav

Пиковый уровень 100.0 % Качество диапазона 100.0 % CRC теста 3089BE50 CRC копии 3089BE50 Копирование... OK

Ошибок не произошло

AccurateRip: сводка

Трек 1 точное извлечение (доверие 2) [0840501E]Трек 2 точное извлечение (доверие 2) [E17C5C1B]Трек 3 точное извлечение (доверие 2) [0BD02734]Трек 4 точное извлечение (доверие 2) [BBFD4C80]Трек 5 точное извлечение (доверие 2) [0A3E8F75]Трек 6 точное извлечение (доверие 2) [87C814A0]Трек 7 точное извлечение (доверие 2) [98E0D068]Трек 8 точное извлечение (доверие 2) [4B55B252]Трек 9 точное извлечение (доверие 2) [FAAE6F04]Трек 10 точное извлечение (доверие 2) [6E27386A]Трек 11 точное извлечение (доверие 2) [49AE18AE]Трек 12 точное извлечение (доверие 2) [5C5E229B]Трек 13 точное извлечение (доверие 2) [B0ADFDB5]Трек 14 точное извлечение (доверие 2) [7C7BC11E]Трек 15 точное извлечение (доверие 2) [6600E77E]Трек 16 точное извлечение (доверие 2) [D374F3F5]

Все треки извлечены точно

Конец отчёта
Продолжительность: 53.59
Композитор: David Arnold
Страна-производитель диска: USA
Издатель (лейбл): A&M

Треклист:
01. Tomorrow Never Dies [0:04:51.20]
Performed by Sheryl Crow
02. White Knight [0:08:29.47]
03. The Sinking Of The Devonshire [0:07:06.43]
04. Company Car [0:03:07.40]
05. Station Break [0:03:30.12]
06. Paris And Bond [0:01:55.25]
07. The Last Goodbye [0:01:33.53]
08. Hamburg Break In [0:02:52.35]
09. Hamburg Break Out [0:01:26.30]
10. Doctor Kaufman [0:02:26.25]
11. *-3-Send [0:01:17.02]
12. Underwater Discovery [0:03:37.08]
13. Backseat Driver [0:04:36.72]
Feat. Propellerheads
14. Surrender [0:03:56.60]
Performed by k.d. lang
15. James Bond Theme [0:03:12.13]
Performed by Moby
 
Exact Audio Copy V0.99 prebeta 5 from 4. May 2009

Отчёт EAC об извлечении, выполненном 14. сентября 2010, 11:19

David Arnold / Tomorrow Never Dies

Дисковод: TSSTcorpCDDVDW SH-S202H Adapter: 3 ID: 0

Режим чтения : ДостоверностьИспользование точного потока : ДаОтключение кэша аудио : ДаИспользование указателей C2 : Нет

Коррекция смещения при чтении : 6Способность читать области Lead-in и Lead-out : НетЗаполнение пропущенных сэмплов тишиной : ДаУдаление блоков с тишиной в начале и конце : НетПри вычислениях CRC использовались нулевые сэмплы : ДаИнтерфейс : Встроенный Win32-интерфейс для Win NT/2000

Выходной формат : Внутренние WAV-операцииФормат сэмплов : 44.100 Гц; 16 бит; стерео

TOC извлечённого CD

Трек | Старт | Длительность | Начальный сектор | Конечный сектор --------------------------------------------------------------------- 1 | 0:00.00 | 4:51.20 | 0 | 21844 2 | 4:51.20 | 8:29.47 | 21845 | 60066 3 | 13:20.67 | 7:06.43 | 60067 | 92059 4 | 20:27.35 | 3:07.40 | 92060 | 106124 5 | 23:35.00 | 3:30.12 | 106125 | 121886 6 | 27:05.12 | 1:55.25 | 121887 | 130536 7 | 29:00.37 | 1:33.53 | 130537 | 137564 8 | 30:34.15 | 2:52.35 | 137565 | 150499 9 | 33:26.50 | 1:26.30 | 150500 | 156979 10 | 34:53.05 | 2:26.25 | 156980 | 167954 11 | 37:19.30 | 1:17.02 | 167955 | 173731 12 | 38:36.32 | 3:37.08 | 173732 | 190014 13 | 42:13.40 | 4:36.72 | 190015 | 210786 14 | 46:50.37 | 3:56.60 | 210787 | 228546 15 | 50:47.22 | 3:12.13 | 228547 | 242959

Характеристики диапазона извлечения и сообщения об ошибках

Выбранный диапазон

Имя файла C:\Torrent\Мои раздачи\James Bond Collection\18 (A). Tomorrow Never Dies (1997)\David Arnold - Tomorrow Never Dies.wav

Пиковый уровень 98.8 % Качество диапазона 100.0 % CRC теста 8D799443 CRC копии 8D799443 Копирование... OK

Ошибок не произошло

AccurateRip: сводка

Трек 1 точное извлечение (доверие 33) [B674C1E9]Трек 2 точное извлечение (доверие 31) [4A68D0BB]Трек 3 точное извлечение (доверие 31) [75311921]Трек 4 точное извлечение (доверие 30) [6005ABB3]Трек 5 точное извлечение (доверие 32) [F1272E99]Трек 6 точное извлечение (доверие 31) [2BA5BFC5]Трек 7 точное извлечение (доверие 31) [1CCD21F2]Трек 8 точное извлечение (доверие 31) [250571F2]Трек 9 точное извлечение (доверие 31) [EE0DF9D7]Трек 10 точное извлечение (доверие 31) [F05B812A]Трек 11 точное извлечение (доверие 31) [10EA478F]Трек 12 точное извлечение (доверие 31) [848BB39D]Трек 13 точное извлечение (доверие 32) [54F5F9DC]Трек 14 точное извлечение (доверие 33) [42DDE42A]Трек 15 точное извлечение (доверие 32) [EBD332F7]

Все треки извлечены точно

Конец отчёта
Продолжительность: 75.44
Композитор: David Arnold
Страна-производитель диска: USA
Издатель (лейбл): Chapter III/Gold Circle

Треклист:
01. White Knight (08:29.22)
02. The Sinking Of The Devonshire (07:06.53)
03. Company Car (03:09.02)
04. Paris & Bond (01:55.30)
05. The Last Goodbye (01:33.45)
06. Hamburg Break In (02:52.53)
07. Hamburg Break Out (01:26.02)
08. Doctor Kaufman (02:26.53)
09. *-3-* Send (01:16.02)
10. Back Seat Driver (04:36.08)
11. Underwater Discovery (03:36.55)
12. Helicopter Ride (01:36.07)
13. Bike Chase (06:45.15)
14. Bike Shop Fight (02:42.63)
15. Kowloon Bay (02:27.47)
16. Boarding The Stealth (04:38.25)
17. A Tricky Spot For 007 (02:48.50)
18. All In A Day's Work (05:15.08)
19. Exclusive David Arnold Interview (11:02.07)
 
Exact Audio Copy V0.99 prebeta 5 from 4. May 2009

Отчёт EAC об извлечении, выполненном 14. сентября 2010, 11:40

David Arnold / Tomorrow Never Dies (The Original Motion Picture Score)

Дисковод: TSSTcorpCDDVDW SH-S202H Adapter: 3 ID: 0

Режим чтения : ДостоверностьИспользование точного потока : ДаОтключение кэша аудио : ДаИспользование указателей C2 : Нет

Коррекция смещения при чтении : 6Способность читать области Lead-in и Lead-out : НетЗаполнение пропущенных сэмплов тишиной : ДаУдаление блоков с тишиной в начале и конце : НетПри вычислениях CRC использовались нулевые сэмплы : ДаИнтерфейс : Встроенный Win32-интерфейс для Win NT/2000

Выходной формат : Внутренние WAV-операцииФормат сэмплов : 44.100 Гц; 16 бит; стерео

TOC извлечённого CD

Трек | Старт | Длительность | Начальный сектор | Конечный сектор --------------------------------------------------------------------- 1 | 0:00.00 | 8:29.22 | 0 | 38196 2 | 8:29.22 | 7:06.53 | 38197 | 70199 3 | 15:36.00 | 3:09.02 | 70200 | 84376 4 | 18:45.02 | 1:55.30 | 84377 | 93031 5 | 20:40.32 | 1:33.45 | 93032 | 100051 6 | 22:14.02 | 2:52.53 | 100052 | 113004 7 | 25:06.55 | 1:26.02 | 113005 | 119456 8 | 26:32.57 | 2:26.53 | 119457 | 130459 9 | 28:59.35 | 1:16.02 | 130460 | 136161 10 | 30:15.37 | 4:36.08 | 136162 | 156869 11 | 34:51.45 | 3:36.55 | 156870 | 173124 12 | 38:28.25 | 1:36.07 | 173125 | 180331 13 | 40:04.32 | 6:45.15 | 180332 | 210721 14 | 46:49.47 | 2:42.63 | 210722 | 222934 15 | 49:32.35 | 2:27.47 | 222935 | 234006 16 | 52:00.07 | 4:38.25 | 234007 | 254881 17 | 56:38.32 | 2:48.50 | 254882 | 267531 18 | 59:27.07 | 5:15.08 | 267532 | 291164 19 | 64:42.15 | 11:02.07 | 291165 | 340821

Характеристики диапазона извлечения и сообщения об ошибках

Выбранный диапазон

Имя файла C:\Torrent\Мои раздачи\James Bond Collection\18 (B). Tomorrow Never Dies - The Original Motion Picture Score (1999)\David Arnold - Tomorrow Never Dies (The Original Motion Picture Score).wav

Пиковый уровень 98.8 % Качество диапазона 99.9 % CRC теста 40F4F869 CRC копии 40F4F869 Копирование... OK

Ошибок не произошло

AccurateRip: сводка

Трек 1 точное извлечение (доверие 10) [D497687B]Трек 2 точное извлечение (доверие 10) [9AB750F2]Трек 3 точное извлечение (доверие 10) [33CA983F]Трек 4 точное извлечение (доверие 10) [574168DF]Трек 5 точное извлечение (доверие 10) [03CA34D3]Трек 6 точное извлечение (доверие 10) [B611E8A6]Трек 7 точное извлечение (доверие 10) [9089F5F8]Трек 8 точное извлечение (доверие 10) [AD7EDC2D]Трек 9 точное извлечение (доверие 10) [D09CADD6]Трек 10 точное извлечение (доверие 10) [F11B0331]Трек 11 точное извлечение (доверие 10) [C0E5A5FD]Трек 12 точное извлечение (доверие 10) [3B3734DE]Трек 13 точное извлечение (доверие 10) [2B1F3E60]Трек 14 точное извлечение (доверие 10) [093CDDC0]Трек 15 точное извлечение (доверие 10) [147AB4EC]Трек 16 точное извлечение (доверие 10) [B6FBDD71]Трек 17 точное извлечение (доверие 10) [504EC014]Трек 18 точное извлечение (доверие 8) [12A5EE0B]Трек 19 точное извлечение (доверие 6) [1BE3C8D8]

Все треки извлечены точно

Конец отчёта
Продолжительность: 73.22
Композитор: David Arnold
Страна-производитель диска: Japan
Издатель (лейбл): MCA

Треклист:
01. The World Is Not Enough (03:58.05)
Performed by Garbage
02. Show Me The Money (01:27.65)
03. Come In 007, Your Time Is Up (05:19.27)
04. Access Denied (01:33.38)
05. M's Confession (01:31.62)
06. Welcome To Baku (01:42.33)
07. Casino (02:57.02)
08. Ice Bandits (03:42.18)
09. Elektra's Theme (02:06.67)
10. Body Double (03:00.20)
11. Going Down - The Bunker (06:27.65)
12. Pipeline (04:15.70)
13. Remember Pleasure (02:45.73)
14. Caviar Factory (06:01.17)
15. Torture Queen (02:22.33)
16. I Never Miss (03:32.45)
17. Submarine (10:20.52)
18. Christmas In Turkey (01:28.23)
19. Only Myself To Blame (03:40.55)
Performed by Scott Walker
20. Sweetest Coma Again (05:07.15)
Performed by LUNA SEA Feat. DJ Krush
 
Exact Audio Copy V0.99 prebeta 5 from 4. May 2009

Отчёт EAC об извлечении, выполненном 5. октября 2010, 12:56

David Arnold / The World Is Not Enough (Japanese Edition)

Дисковод: TSSTcorpCDDVDW SH-S202H Adapter: 3 ID: 0

Режим чтения : ДостоверностьИспользование точного потока : ДаОтключение кэша аудио : ДаИспользование указателей C2 : Нет

Коррекция смещения при чтении : 6Способность читать области Lead-in и Lead-out : НетЗаполнение пропущенных сэмплов тишиной : ДаУдаление блоков с тишиной в начале и конце : НетПри вычислениях CRC использовались нулевые сэмплы : ДаИнтерфейс : Встроенный Win32-интерфейс для Win NT/2000

Выходной формат : Внутренние WAV-операцииФормат сэмплов : 44.100 Гц; 16 бит; стерео

TOC извлечённого CD

Трек | Старт | Длительность | Начальный сектор | Конечный сектор --------------------------------------------------------------------- 1 | 0:00.00 | 3:58.05 | 0 | 17854 2 | 3:58.05 | 1:27.65 | 17855 | 24444 3 | 5:25.70 | 5:19.27 | 24445 | 48396 4 | 10:45.22 | 1:33.38 | 48397 | 55409 5 | 12:18.60 | 1:31.62 | 55410 | 62296 6 | 13:50.47 | 1:42.33 | 62297 | 69979 7 | 15:33.05 | 2:57.02 | 69980 | 83256 8 | 18:30.07 | 3:42.18 | 83257 | 99924 9 | 22:12.25 | 2:06.67 | 99925 | 109441 10 | 24:19.17 | 3:00.20 | 109442 | 122961 11 | 27:19.37 | 6:27.65 | 122962 | 152051 12 | 33:47.27 | 4:15.70 | 152052 | 171246 13 | 38:03.22 | 2:45.73 | 171247 | 183694 14 | 40:49.20 | 6:01.17 | 183695 | 210786 15 | 46:50.37 | 2:22.33 | 210787 | 221469 16 | 49:12.70 | 3:32.45 | 221470 | 237414 17 | 52:45.40 | 10:20.52 | 237415 | 283966 18 | 63:06.17 | 1:28.23 | 283967 | 290589 19 | 64:34.40 | 3:40.55 | 290590 | 307144 20 | 68:15.20 | 5:07.15 | 307145 | 330184

Характеристики диапазона извлечения и сообщения об ошибках

Выбранный диапазон

Имя файла C:\Torrent\Мои раздачи\James Bond Collection\19. The World Is Not Enough (1999)\David Arnold - The World Is Not Enough (Japanese Edition).wav

Пиковый уровень 98.8 % Качество диапазона 100.0 % CRC теста 67A2FA4A CRC копии 67A2FA4A Копирование... OK

Ошибок не произошло

AccurateRip: сводка

Трек 1 точность не определена (достоверность 1) [6F10DEF1], AccurateRip вернул [1145B4DF]Трек 2 нет в базе данныхТрек 3 нет в базе данныхТрек 4 нет в базе данныхТрек 5 нет в базе данныхТрек 6 нет в базе данныхТрек 7 нет в базе данныхТрек 8 нет в базе данныхТрек 9 нет в базе данныхТрек 10 нет в базе данныхТрек 11 нет в базе данныхТрек 12 нет в базе данныхТрек 13 нет в базе данныхТрек 14 нет в базе данныхТрек 15 нет в базе данныхТрек 16 нет в базе данныхТрек 17 нет в базе данныхТрек 18 нет в базе данныхТрек 19 нет в базе данныхТрек 20 нет в базе данных

1 трек(и) не удалось проверить на точность19 трек(и) не содержатся в базе AccurateRip

Ни один трек не прошёл проверки на точностьВ вашей базе может быть иной вариант штамповки диска

Конец отчёта
Продолжительность: 55.00
Композитор: David Arnold
Страна-производитель диска: Russia
Издатель (лейбл): Warner Bros./ФГ Никитин

Треклист:
01. Die Another Day (04:38.67)
Performed by Madonna
02. James Bond Theme (Bond Vs. Oakenfold) (04:05.26)
03. On The Beach (02:51.41)
04. Hovercraft Chase (03:49.24)
05. Some Kind Of Hero (04:32.45)
06. Welcome To Cuba (02:07.46)
07. Jinx Jordan (01:29.24)
08. Jinx And James (02:04.06)
09. A Touch Of Frost (01:52.11)
10. Icarus (01:23.55)
11. Laser Fight (04:35.67)
12. Whiteout (04:55.34)
13. Iced Inc (03:08.41)
14. Antonov (11:52.12)
15. Going Down Together (01:34.16)
16. Data Track
 
Exact Audio Copy V0.99 prebeta 5 from 4. May 2009

Отчёт EAC об извлечении, выполненном 14. сентября 2010, 16:58

David Arnold / James Bond: Die Another Day

Дисковод: TSSTcorpCDDVDW SH-S202H Adapter: 3 ID: 0

Режим чтения : ДостоверностьИспользование точного потока : ДаОтключение кэша аудио : ДаИспользование указателей C2 : Нет

Коррекция смещения при чтении : 6Способность читать области Lead-in и Lead-out : НетЗаполнение пропущенных сэмплов тишиной : ДаУдаление блоков с тишиной в начале и конце : НетПри вычислениях CRC использовались нулевые сэмплы : ДаИнтерфейс : Встроенный Win32-интерфейс для Win NT/2000

Выходной формат : Внутренние WAV-операцииФормат сэмплов : 44.100 Гц; 16 бит; стерео

TOC извлечённого CD

Трек | Старт | Длительность | Начальный сектор | Конечный сектор --------------------------------------------------------------------- 1 | 0:00.00 | 4:38.67 | 0 | 20916 2 | 4:38.67 | 4:05.26 | 20917 | 39317 3 | 8:44.18 | 2:51.41 | 39318 | 52183 4 | 11:35.59 | 3:49.24 | 52184 | 69382 5 | 15:25.08 | 4:32.45 | 69383 | 89827 6 | 19:57.53 | 2:07.46 | 89828 | 99398 7 | 22:05.24 | 1:29.24 | 99399 | 106097 8 | 23:34.48 | 2:04.06 | 106098 | 115403 9 | 25:38.54 | 1:52.11 | 115404 | 123814 10 | 27:30.65 | 1:23.55 | 123815 | 130094 11 | 28:54.45 | 4:35.67 | 130095 | 150786 12 | 33:30.37 | 4:55.34 | 150787 | 172945 13 | 38:25.71 | 3:08.41 | 172946 | 187086 14 | 41:34.37 | 11:52.12 | 187087 | 240498 15 | 53:26.49 | 1:34.16 | 240499 | 247564 16 | 57:32.65 | 18:50.39 | 258965 | 343753

Характеристики диапазона извлечения и сообщения об ошибках

Выбранный диапазон

Имя файла C:\Torrent\Мои раздачи\James Bond Collection\20. Die Another Day (2002)\David Arnold - James Bond Die Another Day.wav

Пиковый уровень 100.0 % Качество диапазона 100.0 % CRC теста 76096C3B CRC копии 76096C3B Копирование... OK

Ошибок не произошло

AccurateRip: сводка

Трек 1 точность не определена (достоверность 22) [B0F6F5E1], AccurateRip вернул [314B8ED1]Трек 2 точность не определена (достоверность 24) [E6D9CF48], AccurateRip вернул [CFBBBD80]Трек 3 точность не определена (достоверность 23) [D97BECA4], AccurateRip вернул [BE2EF444]Трек 4 точность не определена (достоверность 22) [FA52703A], AccurateRip вернул [1EC53A7A]Трек 5 точность не определена (достоверность 22) [DBBA5262], AccurateRip вернул [5EE39522]Трек 6 точность не определена (достоверность 24) [37AEC151], AccurateRip вернул [34D714F1]Трек 7 точность не определена (достоверность 24) [B20B9941], AccurateRip вернул [75086621]Трек 8 точность не определена (достоверность 23) [D47B62EC], AccurateRip вернул [601D3044]Трек 9 точность не определена (достоверность 22) [B626C3B1], AccurateRip вернул [EF3337D9]Трек 10 точность не определена (достоверность 24) [3DA1A473], AccurateRip вернул [0503B73B]Трек 11 точность не определена (достоверность 22) [BB489842], AccurateRip вернул [B2EF8D92]Трек 12 точность не определена (достоверность 23) [D87C472E], AccurateRip вернул [E15D49DE]Трек 13 точность не определена (достоверность 23) [51164ED9], AccurateRip вернул [8DA5D199]Трек 14 точность не определена (достоверность 22) [6AB373EC], AccurateRip вернул [9BB1368C]Трек 15 точность не определена (достоверность 24) [2D706524], AccurateRip вернул [8CE9A1E4]

Ни один трек не прошёл проверки на точностьВ вашей базе может быть иной вариант штамповки диска

Конец отчёта
Клип "Die Another Day";
Небольшой фильм о съемках клипа;
Галереи - постеры и фотографии девушек Бонда;
Во время первого запуска с вас потребуют ввести адрес почты для подписки – просто снимите галочки и пишите любые адреса (главное – прописать @).
Обещанный видео-контент в интернете уже не доступен (все-таки прошло больше 8 лет).
Для корректной работы необходим QuickTime
Продолжительность: 74.20
Композитор: David Arnold
Страна-производитель диска: Russia
Издатель (лейбл): Sony BMG

Треклист:
01. African Rundown (06:52.29)
02. Nothing Sinister (01:27.35)
03. Unauthorized Access (01:08.57)
04. Blunt Instrument (02:22.57)
05. CCTV (01:30.06)
06. Solange (00:59.71)
07. Trip Aces (02:06.69)
08. Miami International (12:43.01)
09. I'm The Money (00:27.68)
10. Aston Montenegro (01:03.22)
11. Dinner Jackets (01:52.52)
12. The Tell (03:23.14)
13. Stairwell Fight (04:12.46)
14. Vesper (01:44.66)
15. Bond Loses It All (03:56.21)
16. Dirty Martini (03:49.15)
17. Bond Wins It All (04:32.32)
18. The End Of An Aston Martin (01:30.36)
19. The Bad Die Young (01:18.67)
20. City Of Lovers (03:30.66)
21. The Switch (05:07.22)
22. Fall Of A House In Venice (01:53.52)
23. Death Of Vesper (02:50.33)
24. The Bitch Is Dead (01:05.52)
25. The Name's Bond... James Bond (02:49.31)
 
Exact Audio Copy V0.99 prebeta 5 from 4. May 2009

Отчёт EAC об извлечении, выполненном 14. сентября 2010, 15:58

David Arnold / Casino Royale

Дисковод: TSSTcorpCDDVDW SH-S202H Adapter: 3 ID: 0

Режим чтения : ДостоверностьИспользование точного потока : ДаОтключение кэша аудио : ДаИспользование указателей C2 : Нет

Коррекция смещения при чтении : 6Способность читать области Lead-in и Lead-out : НетЗаполнение пропущенных сэмплов тишиной : ДаУдаление блоков с тишиной в начале и конце : НетПри вычислениях CRC использовались нулевые сэмплы : ДаИнтерфейс : Встроенный Win32-интерфейс для Win NT/2000

Выходной формат : Внутренние WAV-операцииФормат сэмплов : 44.100 Гц; 16 бит; стерео

TOC извлечённого CD

Трек | Старт | Длительность | Начальный сектор | Конечный сектор --------------------------------------------------------------------- 1 | 0:00.00 | 6:52.29 | 0 | 30928 2 | 6:52.29 | 1:27.35 | 30929 | 37488 3 | 8:19.64 | 1:08.57 | 37489 | 42645 4 | 9:28.46 | 2:22.57 | 42646 | 53352 5 | 11:51.28 | 1:30.06 | 53353 | 60108 6 | 13:21.34 | 0:59.71 | 60109 | 64604 7 | 14:21.30 | 2:06.69 | 64605 | 74123 8 | 16:28.24 | 12:43.01 | 74124 | 131349 9 | 29:11.25 | 0:27.68 | 131350 | 133442 10 | 29:39.18 | 1:03.22 | 133443 | 138189 11 | 30:42.40 | 1:52.52 | 138190 | 146641 12 | 32:35.17 | 3:23.14 | 146642 | 161880 13 | 35:58.31 | 4:12.46 | 161881 | 180826 14 | 40:11.02 | 1:44.66 | 180827 | 188692 15 | 41:55.68 | 3:56.21 | 188693 | 206413 16 | 45:52.14 | 3:49.15 | 206414 | 223603 17 | 49:41.29 | 4:32.32 | 223604 | 244035 18 | 54:13.61 | 1:30.36 | 244036 | 250821 19 | 55:44.22 | 1:18.67 | 250822 | 256738 20 | 57:03.14 | 3:30.66 | 256739 | 272554 21 | 60:34.05 | 5:07.22 | 272555 | 295601 22 | 65:41.27 | 1:53.52 | 295602 | 304128 23 | 67:35.04 | 2:50.33 | 304129 | 316911 24 | 70:25.37 | 1:05.52 | 316912 | 321838 25 | 71:31.14 | 2:49.31 | 321839 | 334544

Характеристики диапазона извлечения и сообщения об ошибках

Выбранный диапазон

Имя файла C:\Torrent\Мои раздачи\James Bond Collection\21. Casino Royale (2006)\David Arnold - Casino Royale.wav

Пиковый уровень 98.8 % Качество диапазона 99.9 % CRC теста DFC0DD4D CRC копии DFC0DD4D Копирование... OK

Ошибок не произошло

AccurateRip: сводка

Трек 1 точное извлечение (доверие 26) [885D689F]Трек 2 точное извлечение (доверие 27) [484D3820]Трек 3 точное извлечение (доверие 27) [E5D87CF4]Трек 4 точное извлечение (доверие 27) [6F712C29]Трек 5 точное извлечение (доверие 27) [FAD0F949]Трек 6 точное извлечение (доверие 27) [536C8F68]Трек 7 точное извлечение (доверие 27) [D5AE52C9]Трек 8 точное извлечение (доверие 27) [40C8C8CE]Трек 9 точное извлечение (доверие 27) [4F45BA55]Трек 10 точное извлечение (доверие 27) [9FB2E06B]Трек 11 точное извлечение (доверие 27) [69237561]Трек 12 точное извлечение (доверие 27) [0E2A300D]Трек 13 точное извлечение (доверие 27) [7EC8E679]Трек 14 точное извлечение (доверие 27) [CFF75E55]Трек 15 точное извлечение (доверие 27) [D8C431B9]Трек 16 точное извлечение (доверие 27) [3E10E326]Трек 17 точное извлечение (доверие 27) [DE3BB009]Трек 18 точное извлечение (доверие 26) [068F3CA4]Трек 19 точное извлечение (доверие 27) [29CD9609]Трек 20 точное извлечение (доверие 26) [73B19E58]Трек 21 точное извлечение (доверие 26) [7E028847]Трек 22 точное извлечение (доверие 27) [72E991B1]Трек 23 точное извлечение (доверие 27) [B059897C]Трек 24 точное извлечение (доверие 27) [E1868D80]Трек 25 точное извлечение (доверие 26) [2C1A5824]

Все треки извлечены точно

Конец отчёта
Продолжительность: 61.24
Композитор: David Arnold
Страна-производитель диска: Russia
Издатель (лейбл): Sony BMG

Треклист:
01. Time To Get Out (03:28.63)
02. The Palio (04:59.63)
03. Inside Man (00:38.52)
04. Bond In Haiti (00:35.35)
05. Somebody Wants To Kill You (02:17.61)
06. Greene & Camille (02:13.66)
07. Pursuit At Port Au Prince (05:58.36)
08. No Interest In Dominic Greene (02:44.27)
09. Night At The Opera (03:02.24)
10. Restrict Bond's Movements (01:31.63)
11. Talamone (00:35.00)
12. What's Keeping You Awake (01:41.08)
13. Bolivian Taxi Ride (00:49.41)
14. Field Trip (00:41.73)
15. Forgive Yourself (02:26.71)
16. DC3 (01:15.31)
17. Target Terminated (03:54.16)
18. Camille's Story (03:59.05)
19. Oil Fields (02:29.35)
20. Have You Ever Killed Someone? (01:33.19)
21. Perla De Las Dunas (08:08.17)
22. The Dead Don't Care About Vengeance (01:14.50)
23. I Never Left (00:40.41)
24. Another Way To Die (04:23.58)
Performed by Jack White & Alicia Keys
 
Exact Audio Copy V0.99 prebeta 5 from 4. May 2009

Отчёт EAC об извлечении, выполненном 14. сентября 2010, 16:32

David Arnold / Quantum Of Solace

Дисковод: TSSTcorpCDDVDW SH-S202H Adapter: 3 ID: 0

Режим чтения : ДостоверностьИспользование точного потока : ДаОтключение кэша аудио : ДаИспользование указателей C2 : Нет

Коррекция смещения при чтении : 6Способность читать области Lead-in и Lead-out : НетЗаполнение пропущенных сэмплов тишиной : ДаУдаление блоков с тишиной в начале и конце : НетПри вычислениях CRC использовались нулевые сэмплы : ДаИнтерфейс : Встроенный Win32-интерфейс для Win NT/2000

Выходной формат : Внутренние WAV-операцииФормат сэмплов : 44.100 Гц; 16 бит; стерео

TOC извлечённого CD

Трек | Старт | Длительность | Начальный сектор | Конечный сектор --------------------------------------------------------------------- 1 | 0:00.00 | 3:28.63 | 0 | 15662 2 | 3:28.63 | 4:59.63 | 15663 | 38150 3 | 8:28.51 | 0:38.52 | 38151 | 41052 4 | 9:07.28 | 0:35.35 | 41053 | 43712 5 | 9:42.63 | 2:17.61 | 43713 | 54048 6 | 12:00.49 | 2:13.66 | 54049 | 64089 7 | 14:14.40 | 5:58.36 | 64090 | 90975 8 | 20:13.01 | 2:44.27 | 90976 | 103302 9 | 22:57.28 | 3:02.24 | 103303 | 116976 10 | 25:59.52 | 1:31.63 | 116977 | 123864 11 | 27:31.40 | 0:35.00 | 123865 | 126489 12 | 28:06.40 | 1:41.08 | 126490 | 134072 13 | 29:47.48 | 0:49.41 | 134073 | 137788 14 | 30:37.14 | 0:41.73 | 137789 | 140936 15 | 31:19.12 | 2:26.71 | 140937 | 151957 16 | 33:46.08 | 1:15.31 | 151958 | 157613 17 | 35:01.39 | 3:54.16 | 157614 | 175179 18 | 38:55.55 | 3:59.05 | 175180 | 193109 19 | 42:54.60 | 2:29.35 | 193110 | 204319 20 | 45:24.20 | 1:33.19 | 204320 | 211313 21 | 46:57.39 | 8:08.17 | 211314 | 247930 22 | 55:05.56 | 1:14.50 | 247931 | 253530 23 | 56:20.31 | 0:40.41 | 253531 | 256571 24 | 57:00.72 | 4:23.58 | 256572 | 276354

Характеристики диапазона извлечения и сообщения об ошибках

Выбранный диапазон

Имя файла C:\Torrent\Мои раздачи\James Bond Collection\22. Quantum Of Solace (2008)\David Arnold - Quantum Of Solace.wav

Пиковый уровень 100.0 % Качество диапазона 100.0 % CRC теста E10AF2E2 CRC копии E10AF2E2 Копирование... OK

Ошибок не произошло

AccurateRip: сводка

Трек 1 точное извлечение (доверие 18) [6C819F70]Трек 2 точное извлечение (доверие 18) [4FAEF115]Трек 3 точное извлечение (доверие 18) [37A0DE6A]Трек 4 точное извлечение (доверие 18) [68564DEF]Трек 5 точное извлечение (доверие 18) [42F65EF8]Трек 6 точное извлечение (доверие 18) [CE3FB70D]Трек 7 точное извлечение (доверие 18) [4551815C]Трек 8 точное извлечение (доверие 18) [EB6F976E]Трек 9 точное извлечение (доверие 18) [D117A2AA]Трек 10 точное извлечение (доверие 18) [DA571AF1]Трек 11 точное извлечение (доверие 18) [FDBAA6FE]Трек 12 точное извлечение (доверие 18) [0EFBAE3E]Трек 13 точное извлечение (доверие 18) [EBEC0DA0]Трек 14 точное извлечение (доверие 18) [12AC6319]Трек 15 точное извлечение (доверие 18) [99C35A63]Трек 16 точное извлечение (доверие 18) [15B7B3C6]Трек 17 точное извлечение (доверие 18) [795BADC1]Трек 18 точное извлечение (доверие 18) [809F2382]Трек 19 точное извлечение (доверие 18) [09618E26]Трек 20 точное извлечение (доверие 18) [DCEEE900]Трек 21 точное извлечение (доверие 18) [1A8718A4]Трек 22 точное извлечение (доверие 18) [72BF3A0A]Трек 23 точное извлечение (доверие 18) [D235D555]Трек 24 точное извлечение (доверие 18) [30B80F9A]

Все треки извлечены точно

Конец отчёта
Продолжительность: 34.20
Композитор: Burt Bacharach
Страна-производитель диска: USA
Издатель (лейбл): Varese Sarabande

Треклист:
01. Casino Royale Theme (02:37.30)
Performed by Herb Alpert & The Tijuana Brass
02. The Look Of Love (04:10.07)
Vocal – Dusty Springfield
03. Money Penny Goes For Broke (01:38.73)
04. Le Chiffre's Torture Of The Mind (02:13.07)
05. Home James, Don't Spare The Horses (01:32.35)
06. Sir James' Trip To Find Mata (03:50.15)
07. The Look Of Love (Instrumental) (02:49.43)
08. Hi There Miss Goodthighs (01:17.57)
09. Little French Boy (02:26.10)
10. Flying Saucer - First Stop Berlin (02:59.58)
11. The Venerable Sir James Bond (02:33.20)
12. Dream On James, You're Winning (01:19.27)
13. The Big Cowboys And Indians Fight At Casino Royale / Casino Royale Theme (Reprise) (04:52.08)
Performed by Herb Alpert & The Tijuana Brass
 
Exact Audio Copy V0.99 prebeta 5 from 4. May 2009

Отчёт EAC об извлечении, выполненном 5. октября 2010, 11:52

Burt Bacharach / Casino Royale

Дисковод: TSSTcorpCDDVDW SH-S202H Adapter: 3 ID: 0

Режим чтения : ДостоверностьИспользование точного потока : ДаОтключение кэша аудио : ДаИспользование указателей C2 : Нет

Коррекция смещения при чтении : 6Способность читать области Lead-in и Lead-out : НетЗаполнение пропущенных сэмплов тишиной : ДаУдаление блоков с тишиной в начале и конце : НетПри вычислениях CRC использовались нулевые сэмплы : ДаИнтерфейс : Встроенный Win32-интерфейс для Win NT/2000

Выходной формат : Внутренние WAV-операцииФормат сэмплов : 44.100 Гц; 16 бит; стерео

TOC извлечённого CD

Трек | Старт | Длительность | Начальный сектор | Конечный сектор --------------------------------------------------------------------- 1 | 0:00.00 | 2:37.30 | 0 | 11804 2 | 2:37.30 | 4:10.07 | 11805 | 30561 3 | 6:47.37 | 1:38.73 | 30562 | 37984 4 | 8:26.35 | 2:13.07 | 37985 | 47966 5 | 10:39.42 | 1:32.35 | 47967 | 54901 6 | 12:12.02 | 3:50.15 | 54902 | 72166 7 | 16:02.17 | 2:49.43 | 72167 | 84884 8 | 18:51.60 | 1:17.57 | 84885 | 90716 9 | 20:09.42 | 2:26.10 | 90717 | 101676 10 | 22:35.52 | 2:59.58 | 101677 | 115159 11 | 25:35.35 | 2:33.20 | 115160 | 126654 12 | 28:08.55 | 1:19.27 | 126655 | 132606 13 | 29:28.07 | 4:52.08 | 132607 | 154514

Характеристики диапазона извлечения и сообщения об ошибках

Выбранный диапазон

Имя файла C:\Torrent\Мои раздачи\James Bond Collection\Casino Roayle (1967)\Burt Bacharach - Casino Royale.wav

Пиковый уровень 98.8 % Качество диапазона 100.0 % CRC теста 866B4DE5 CRC копии 866B4DE5 Копирование... OK

Ошибок не произошло

AccurateRip: сводка

Трек 1 точность не определена (достоверность 8) [F2EC16B8], AccurateRip вернул [8B8EAA55]Трек 2 точность не определена (достоверность 8) [5E6C638A], AccurateRip вернул [29CE6DE1]Трек 3 точность не определена (достоверность 7) [CD17F8F5], AccurateRip вернул [4E461A1E]Трек 4 точность не определена (достоверность 7) [2AE8DB8F], AccurateRip вернул [446F4209]Трек 5 точность не определена (достоверность 8) [E19AE9E8], AccurateRip вернул [A7C79184]Трек 6 точность не определена (достоверность 7) [66248687], AccurateRip вернул [E551C5C4]Трек 7 точность не определена (достоверность 8) [FE83072E], AccurateRip вернул [7C1F4DA1]Трек 8 точность не определена (достоверность 7) [3294B8A9], AccurateRip вернул [74843E98]Трек 9 точность не определена (достоверность 7) [0DE087CF], AccurateRip вернул [F6215130]Трек 10 точность не определена (достоверность 7) [79477261], AccurateRip вернул [F068CF39]Трек 11 точность не определена (достоверность 7) [D5BD30E3], AccurateRip вернул [03F800FF]Трек 12 точность не определена (достоверность 8) [7604974A], AccurateRip вернул [53E3B500]Трек 13 точность не определена (достоверность 7) [83A267FE], AccurateRip вернул [B36F2DA3]

Ни один трек не прошёл проверки на точностьВ вашей базе может быть иной вариант штамповки диска

Конец отчёта
Продолжительность: 62.07
Композитор: Michel Legrand
Страна-производитель диска: EU (Great Britain)
Издатель (лейбл): Silva Screen

Треклист:
01. Bond Back In Action (00:53.10)
02. Main Title - Never Say Never Again (03:12.00)
Performed by Lani Hall
03. Prologue - Enter 007 (00:29.20)
04. Fatima Blush / A Very Bad Lady (03:48.70)
05. Dinner With 007 (01:10.27)
06. Bahama Island (02:50.43)
07. Bond Smells A Rat / Nurse Blush (01:29.12)
08. Plunder Of A Nuclear Missile (01:57.53)
09. The Big Band Death Of Jack Petachi (01:45.12)
10. Bond And Domino (02:05.73)
11. Fight To The Death With The Tiger Sharks (04:52.02)
12. Une Chanson D'Amour (04:26.68)
Performed by Sophie Della
13. Video Duel / Victory (01:53.47)
14. Nuclear Nightmare (01:08.08)
15. Tango To The Death (02:23.20)
16. Bond Returns Home (00:27.57)
17. The Death of Nicole / Chase Her (01:23.45)
18. Felix And James Exit (00:39.13)
19. Jealousy (03:17.52)
20. Largo's Waltz (01:28.43)
21. Bond To The Rescue (04:45.17)
22. The Big Escape (01:21.60)
23. Tears Of Allah (02:24.15)
24. The Underwater Cave (04:39.33)
25. Fight To The Death (02:19.22)
26. Bond In Retirement / End Title - Never Say Never Again (04:54.28)
Performed by Lani Hall
 
Exact Audio Copy V0.99 prebeta 5 from 4. May 2009

Отчёт EAC об извлечении, выполненном 5. октября 2010, 21:55

Michel Legrand / Never Say Never Again

Дисковод: TSSTcorpCDDVDW SH-S202H Adapter: 3 ID: 0

Режим чтения : ДостоверностьИспользование точного потока : ДаОтключение кэша аудио : ДаИспользование указателей C2 : Нет

Коррекция смещения при чтении : 6Способность читать области Lead-in и Lead-out : НетЗаполнение пропущенных сэмплов тишиной : ДаУдаление блоков с тишиной в начале и конце : НетПри вычислениях CRC использовались нулевые сэмплы : ДаИнтерфейс : Встроенный Win32-интерфейс для Win NT/2000

Выходной формат : Внутренние WAV-операцииФормат сэмплов : 44.100 Гц; 16 бит; стерео

TOC извлечённого CD

Трек | Старт | Длительность | Начальный сектор | Конечный сектор --------------------------------------------------------------------- 1 | 0:00.00 | 0:53.10 | 0 | 3984 2 | 0:53.10 | 3:12.00 | 3985 | 18384 3 | 4:05.10 | 0:29.20 | 18385 | 20579 4 | 4:34.30 | 3:48.70 | 20580 | 37749 5 | 8:23.25 | 1:10.27 | 37750 | 43026 6 | 9:33.52 | 2:50.43 | 43027 | 55819 7 | 12:24.20 | 1:29.12 | 55820 | 62506 8 | 13:53.32 | 1:57.53 | 62507 | 71334 9 | 15:51.10 | 1:45.12 | 71335 | 79221 10 | 17:36.22 | 2:05.73 | 79222 | 88669 11 | 19:42.20 | 4:52.02 | 88670 | 110571 12 | 24:34.22 | 4:26.68 | 110572 | 130589 13 | 29:01.15 | 1:53.47 | 130590 | 139111 14 | 30:54.62 | 1:08.08 | 139112 | 144219 15 | 32:02.70 | 2:23.20 | 144220 | 154964 16 | 34:26.15 | 0:27.57 | 154965 | 157046 17 | 34:53.72 | 1:23.45 | 157047 | 163316 18 | 36:17.42 | 0:39.13 | 163317 | 166254 19 | 36:56.55 | 3:17.52 | 166255 | 181081 20 | 40:14.32 | 1:28.43 | 181082 | 187724 21 | 41:43.00 | 4:45.17 | 187725 | 209116 22 | 46:28.17 | 1:21.60 | 209117 | 215251 23 | 47:50.02 | 2:24.15 | 215252 | 226066 24 | 50:14.17 | 4:39.33 | 226067 | 247024 25 | 54:53.50 | 2:19.22 | 247025 | 257471 26 | 57:12.72 | 4:54.28 | 257472 | 279549

Характеристики диапазона извлечения и сообщения об ошибках

Выбранный диапазон

Имя файла C:\Torrent\Мои раздачи\James Bond Collection\Never Say Never Again (1995)\Michel Legrand - Never Say Never Again.wav

Пиковый уровень 95.9 % Качество диапазона 100.0 % CRC теста 89F7B157 CRC копии 89F7B157 Копирование... OK

Ошибок не произошло

AccurateRip: сводка

Трек 1 точное извлечение (доверие 1) [EDB1F4BA]Трек 2 точное извлечение (доверие 1) [A028BB08]Трек 3 точное извлечение (доверие 1) [3B4D8AB2]Трек 4 точное извлечение (доверие 1) [CE989274]Трек 5 точное извлечение (доверие 1) [13AC8E3F]Трек 6 точное извлечение (доверие 1) [B36FFD00]Трек 7 точное извлечение (доверие 1) [7C9AF335]Трек 8 точное извлечение (доверие 1) [BDC567AE]Трек 9 точное извлечение (доверие 1) [B84BA76C]Трек 10 точное извлечение (доверие 1) [87C13C24]Трек 11 точное извлечение (доверие 1) [562329F3]Трек 12 точное извлечение (доверие 1) [F0878A4E]Трек 13 точное извлечение (доверие 1) [EF93E5F7]Трек 14 точное извлечение (доверие 1) [C1E64BF5]Трек 15 точное извлечение (доверие 1) [829640F4]Трек 16 точное извлечение (доверие 1) [D7BAED8C]Трек 17 точное извлечение (доверие 1) [423AF919]Трек 18 точное извлечение (доверие 1) [21E2FEA8]Трек 19 точное извлечение (доверие 1) [69424F96]Трек 20 точное извлечение (доверие 1) [B71F7BE8]Трек 21 точное извлечение (доверие 1) [3900F3B8]Трек 22 точное извлечение (доверие 1) [CD1B8045]Трек 23 точное извлечение (доверие 1) [BFC962D3]Трек 24 точное извлечение (доверие 1) [270BF9C8]Трек 25 точное извлечение (доверие 1) [12B75222]Трек 26 точное извлечение (доверие 1) [1294AA0A]

Все треки извлечены точно

Конец отчёта


Трекер:  [ 19-Дек-2010 16:04 ]

  

Скачать .torrent

Размер .torrent файла 69 KB


Размер: 7.83 GB
Хэш (hash) релиза: 2220a4670213b26031ce81fbef26317263ec0c9d

bot

Топик был перенесен в форум Саундтреки к фильмам и мультфильмам (lossless)

Перенес AqvaGen

Хотите добавить комментарий к записи скачать торрент Джеймс Бонд-007 Коллекция James Bond-007 Collection

!Обратная связь