Скачать через торрент музыку Хроники Нарнии: Лев, колдунья и волшебный шкаф The Chronicles Of Narnia: The Lion, The Witch And The Wardrobe бесплатно без регистрации torrent

Если у вас наблюдаются проблемы со скриншотами, переходом по ссылками, скачиванием торрентов - проблемы в блокировщике рекламы AdBlock. #хорошегоДня!


Статистика раздачи
Размер:  342 MB   |    Зарегистрирован:  6 лет 9 месяцев   |    .torrent скачан:  57 раз   |   
Раздают:  1  
   
Загрузка...
 
Автор Сообщение

AqvaGen


Harry Gregson-Williams - The Chronicles Of Narnia: The Lion, The Witch And The Wardrobe
Жанр: Score
Год выпуска диска: 2005
Производитель диска: United Kingdom

Аудио кодек: FLAC
Тип рипа: tracks+.cue
Битрейт аудио: lossless
Продолжительность: 01:10:53

Трэклист:
01. The Blitz, 1940 [00:02:32]
02. Evacuating London [00:03:38]
03. The Wardrobe [00:02:54]
04. Lucy Meets Mr. Tumnus [00:04:10]
05. A Narnia Lullaby [00:01:12]
06. The White Witch [00:05:30]
07. From Western Woods to Beaversdam [00:03:34]
08. Father Christmass [00:03:20]
09. To Aslan's Camp [00:03:12]
10. Knighting Peter [00:03:48]
11. The Stone Table [00:08:06]
12. The Battle [00:07:08]
13. Only the Beginning of the Adventure [00:05:32]
14. Can't Take It In (Imogen Heap) [00:04:42]
15. Wunderkind (Alanis Morissette) [00:05:19]
16. Winter Light (Tim Finn) [00:04:13]
17. Where (Lisbeth Scott) [00:01:54]
The soundtrack was composed by Harry Gregson-Williams. Gregson-Williams had previously worked with Adamson on Shrek (2001) and Shrek 2 (2004). In addition there are three original songs in the film; Can't Take It In by Imogen Heap, Wunderkind by Alanis Morissette and Winter Light by Tim Finn.

The soundtrack was recorded at Abbey Road Studios, London, England, and in Los Angeles, CA. Gregson-Williams employed the 75-piece Hollywood Studio Symphony Orchestra, along with a 140-member choir (mostly members of the Bach Choir) and numerous other solo musicians such as electric violinist Hugh Marsh and vocalist Lisbeth Scott (at his Wavecrest Studio). He composed the original score and then spent late September through early November 2005 conducting the Hollywood Orchestra and overseeing the recording of the English choir. For "color", he employed instruments used in ancient folk music, and to underscore critical dramatic moments, he added choral textures and, occasionally, a solo voice. The score includes instances of electronic music.

The soundtrack received two Golden Globe award nominations: "Best Original Score" and "Best Original Song" (for "Wunderkind").

Musicians:
Musicians that were involved in the making of the soundtrack.
Composed by: Harry Gregson-Williams (wrote the music for track 14, "Can't Take It In")
Conducted by: Harry Gregson-Williams
Performing orchestra: Hollywood Studio Symphony
Choir: 140-member Abbey Road Studios group from the Bach Choir
Solo vocalist: Lisbeth Scott (recorded at Wavecrest Studio)
Electric violinist: Hugh Marsh (recorded at Wavecrest Studio)
Duduk player: Chris Bleth ("Narnia Lullaby")
 
Exact Audio Copy V0.99 prebeta 4 from 23. January 2008

EAC extraction logfile from 24. June 2008, 14:59

Harry Gregson-Williams / The Chronicles of Narnia: The Lion, the Witch and the Wardrobe (Special Edition)

Used drive : ATAPI DVD LS 8X16X8X16 Adapter: 2 ID: 0

Read mode : SecureUtilize accurate stream : YesDefeat audio cache : YesMake use of C2 pointers : No

Read offset correction : 30Overread into Lead-In and Lead-Out : NoFill up missing offset samples with silence : YesDelete leading and trailing silent blocks : NoNull samples used in CRC calculations : YesUsed interface : Native Win32 interface for Win NT & 2000Gap handling : Appended to previous track

Used output format : User Defined EncoderSelected bitrate : 768 kBit/sQuality : HighAdd ID3 tag : NoCommand line compressor : C:\Program Files\Exact Audio Copy\FLAC\FLAC.EXEAdditional command line options : -V -8 -T "artist=%a" -T "title=%t" -T "album=%g" -T "date=%y" -T "tracknumber=%n" -T "genre=%m" %s

TOC of the extracted CD

Track | Start | Length | Start sector | End sector --------------------------------------------------------- 1 | 0:00.00 | 2:32.38 | 0 | 11437 2 | 2:32.38 | 3:38.42 | 11438 | 27829 3 | 6:11.05 | 2:54.67 | 27830 | 40946 4 | 9:05.72 | 4:10.66 | 40947 | 59762 5 | 13:16.63 | 1:12.66 | 59763 | 65228 6 | 14:29.54 | 5:30.62 | 65229 | 90040 7 | 20:00.41 | 3:34.00 | 90041 | 106090 8 | 23:34.41 | 3:20.30 | 106091 | 121120 9 | 26:54.71 | 3:12.09 | 121121 | 135529 10 | 30:07.05 | 3:48.43 | 135530 | 152672 11 | 33:55.48 | 8:06.55 | 152673 | 189177 12 | 42:02.28 | 7:08.15 | 189178 | 221292 13 | 49:10.43 | 5:32.28 | 221293 | 246220 14 | 54:42.71 | 4:42.58 | 246221 | 267428 15 | 59:25.54 | 5:19.58 | 267429 | 291411 16 | 64:45.37 | 4:13.19 | 291412 | 310405 17 | 68:58.56 | 1:54.63 | 310406 | 319018 18 | 73:25.44 | 1:14.60 | 330419 | 336028

Track 1

Filename I:\music\Harry Gregson-Williams - 2005 - The Chronicles of Narnia- The Lion, the Witch and the Wardrobe (Special Edition)\01 - Harry Gregson-Williams , The Blitz, 1940.wav

Pre-gap length 0:00:02.00

Peak level 95.4 % Track quality 100.0 % Test CRC 6D2859D3 Copy CRC 6D2859D3 Accurately ripped (confidence 7) [F8341755] Copy OK

Track 2

Filename I:\music\Harry Gregson-Williams - 2005 - The Chronicles of Narnia- The Lion, the Witch and the Wardrobe (Special Edition)\02 - Harry Gregson-Williams , Evacuating London.wav

Peak level 94.0 % Track quality 100.0 % Test CRC 68F1DC88 Copy CRC 68F1DC88 Accurately ripped (confidence 7) [1D7C746D] Copy OK

Track 3

Filename I:\music\Harry Gregson-Williams - 2005 - The Chronicles of Narnia- The Lion, the Witch and the Wardrobe (Special Edition)\03 - Harry Gregson-Williams , The Wardrobe.wav

Peak level 94.3 % Track quality 100.0 % Test CRC B22C8847 Copy CRC B22C8847 Accurately ripped (confidence 7) [252F10F0] Copy OK

Track 4

Filename I:\music\Harry Gregson-Williams - 2005 - The Chronicles of Narnia- The Lion, the Witch and the Wardrobe (Special Edition)\04 - Harry Gregson-Williams , Lucy Meets Mr. Tumnus.wav

Peak level 78.8 % Track quality 100.0 % Test CRC F91DB312 Copy CRC F91DB312 Accurately ripped (confidence 7) [6CA50D8E] Copy OK

Track 5

Filename I:\music\Harry Gregson-Williams - 2005 - The Chronicles of Narnia- The Lion, the Witch and the Wardrobe (Special Edition)\05 - Harry Gregson-Williams , A Narnia Lullaby.wav

Peak level 94.3 % Track quality 100.0 % Test CRC 6E1CAE0D Copy CRC 6E1CAE0D Accurately ripped (confidence 7) [6244E5F7] Copy OK

Track 6

Filename I:\music\Harry Gregson-Williams - 2005 - The Chronicles of Narnia- The Lion, the Witch and the Wardrobe (Special Edition)\06 - Harry Gregson-Williams , The White Witch.wav

Peak level 95.4 % Track quality 100.0 % Test CRC E8D522BB Copy CRC E8D522BB Accurately ripped (confidence 7) [6CC344B9] Copy OK

Track 7

Filename I:\music\Harry Gregson-Williams - 2005 - The Chronicles of Narnia- The Lion, the Witch and the Wardrobe (Special Edition)\07 - Harry Gregson-Williams , From Western Woods to Beaversdam.wav

Peak level 94.0 % Track quality 100.0 % Test CRC F476EEA3 Copy CRC F476EEA3 Accurately ripped (confidence 7) [BA349995] Copy OK

Track 8

Filename I:\music\Harry Gregson-Williams - 2005 - The Chronicles of Narnia- The Lion, the Witch and the Wardrobe (Special Edition)\08 - Harry Gregson-Williams , Father Christmass.wav

Peak level 93.8 % Track quality 100.0 % Test CRC 4B666A24 Copy CRC 4B666A24 Accurately ripped (confidence 6) [6444B454] Copy OK

Track 9

Filename I:\music\Harry Gregson-Williams - 2005 - The Chronicles of Narnia- The Lion, the Witch and the Wardrobe (Special Edition)\09 - Harry Gregson-Williams , To Aslan's Camp.wav

Peak level 90.1 % Track quality 100.0 % Test CRC B3450F83 Copy CRC B3450F83 Accurately ripped (confidence 6) [729D68F8] Copy OK

Track 10

Filename I:\music\Harry Gregson-Williams - 2005 - The Chronicles of Narnia- The Lion, the Witch and the Wardrobe (Special Edition)\10 - Harry Gregson-Williams , Knighting Peter.wav

Peak level 95.3 % Track quality 100.0 % Test CRC 94EFCEBA Copy CRC 94EFCEBA Accurately ripped (confidence 6) [38F3654C] Copy OK

Track 11

Filename I:\music\Harry Gregson-Williams - 2005 - The Chronicles of Narnia- The Lion, the Witch and the Wardrobe (Special Edition)\11 - Harry Gregson-Williams , The Stone Table.wav

Peak level 95.4 % Track quality 100.0 % Test CRC 6B7E68A3 Copy CRC 6B7E68A3 Accurately ripped (confidence 6) [1D1BFD0D] Copy OK

Track 12

Filename I:\music\Harry Gregson-Williams - 2005 - The Chronicles of Narnia- The Lion, the Witch and the Wardrobe (Special Edition)\12 - Harry Gregson-Williams , The Battle.wav

Peak level 95.4 % Track quality 100.0 % Test CRC 560792DD Copy CRC 560792DD Accurately ripped (confidence 6) [415A742D] Copy OK

Track 13

Filename I:\music\Harry Gregson-Williams - 2005 - The Chronicles of Narnia- The Lion, the Witch and the Wardrobe (Special Edition)\13 - Harry Gregson-Williams , Only the Beginning of the Adventure.wav

Peak level 90.1 % Track quality 99.9 % Test CRC A9880CB0 Copy CRC A9880CB0 Accurately ripped (confidence 6) [70F1BB60] Copy OK

Track 14

Filename I:\music\Harry Gregson-Williams - 2005 - The Chronicles of Narnia- The Lion, the Witch and the Wardrobe (Special Edition)\14 - Imogen Heap , Can't Take It In.wav

Peak level 66.7 % Track quality 100.0 % Test CRC 4D175AA3 Copy CRC 4D175AA3 Accurately ripped (confidence 6) [5124C6D5] Copy OK

Track 15

Filename I:\music\Harry Gregson-Williams - 2005 - The Chronicles of Narnia- The Lion, the Witch and the Wardrobe (Special Edition)\15 - Alanis Morissette , Wunderkind.wav

Peak level 71.5 % Track quality 99.9 % Test CRC 3DC371DC Copy CRC 3DC371DC Accurately ripped (confidence 6) [78841E30] Copy OK

Track 16

Filename I:\music\Harry Gregson-Williams - 2005 - The Chronicles of Narnia- The Lion, the Witch and the Wardrobe (Special Edition)\16 - Tim Finn , Winter Light.wav

Peak level 56.8 % Track quality 100.0 % Test CRC A398D1F1 Copy CRC A398D1F1 Accurately ripped (confidence 6) [147E2B99] Copy OK

Track 17

Filename I:\music\Harry Gregson-Williams - 2005 - The Chronicles of Narnia- The Lion, the Witch and the Wardrobe (Special Edition)\17 - Lisbeth Scott , Where.wav

Peak level 56.7 % Track quality 100.0 % Test CRC F08BD73A Copy CRC F08BD73A Accurately ripped (confidence 6) [20C6A2AC] Copy OK

All tracks accurately ripped

No errors occurred

End of status report
 
REM GENRE UnknownREM DATE 2005REM DISCID 06118012REM COMMENT "ExactAudioCopy v0.99pb4"CATALOG 0050086137473PERFORMER "Harry Gregson-Williams"TITLE "The Chronicles of Narnia: The Lion, the Witch and the Wardrobe (Special Edition)"FILE "01 - Harry Gregson-Williams , The Blitz, 1940.wav" WAVE TRACK 01 AUDIO TITLE "Harry Gregson-Williams / The Blitz, 1940" PERFORMER "Harry Gregson-Williams" ISRC USWD10527903 INDEX 01 00:00:00FILE "02 - Harry Gregson-Williams , Evacuating London.wav" WAVE TRACK 02 AUDIO TITLE "Harry Gregson-Williams / Evacuating London" PERFORMER "Harry Gregson-Williams" ISRC USWD10527904 INDEX 01 00:00:00FILE "03 - Harry Gregson-Williams , The Wardrobe.wav" WAVE TRACK 03 AUDIO TITLE "Harry Gregson-Williams / The Wardrobe" PERFORMER "Harry Gregson-Williams" ISRC USWD10527905 INDEX 01 00:00:00FILE "04 - Harry Gregson-Williams , Lucy Meets Mr. Tumnus.wav" WAVE TRACK 04 AUDIO TITLE "Harry Gregson-Williams / Lucy Meets Mr. Tumnus" PERFORMER "Harry Gregson-Williams" ISRC USWD10527906 INDEX 01 00:00:00FILE "05 - Harry Gregson-Williams , A Narnia Lullaby.wav" WAVE TRACK 05 AUDIO TITLE "Harry Gregson-Williams / A Narnia Lullaby" PERFORMER "Harry Gregson-Williams" ISRC USWD10527907 INDEX 01 00:00:00FILE "06 - Harry Gregson-Williams , The White Witch.wav" WAVE TRACK 06 AUDIO TITLE "Harry Gregson-Williams / The White Witch" PERFORMER "Harry Gregson-Williams" ISRC USWD10527908 INDEX 01 00:00:00FILE "07 - Harry Gregson-Williams , From Western Woods to Beaversdam.wav" WAVE TRACK 07 AUDIO TITLE "Harry Gregson-Williams / From Western Woods to Beaversdam" PERFORMER "Harry Gregson-Williams" ISRC USWD10527909 INDEX 01 00:00:00FILE "08 - Harry Gregson-Williams , Father Christmass.wav" WAVE TRACK 08 AUDIO TITLE "Harry Gregson-Williams / Father Christmass" PERFORMER "Harry Gregson-Williams" ISRC USWD10527909 INDEX 01 00:00:00FILE "09 - Harry Gregson-Williams , To Aslan's Camp.wav" WAVE TRACK 09 AUDIO TITLE "Harry Gregson-Williams / To Aslan's Camp" PERFORMER "Harry Gregson-Williams" ISRC USWD10527911 INDEX 01 00:00:00FILE "10 - Harry Gregson-Williams , Knighting Peter.wav" WAVE TRACK 10 AUDIO TITLE "Harry Gregson-Williams / Knighting Peter" PERFORMER "Harry Gregson-Williams" ISRC USWD10527912 INDEX 01 00:00:00FILE "11 - Harry Gregson-Williams , The Stone Table.wav" WAVE TRACK 11 AUDIO TITLE "Harry Gregson-Williams / The Stone Table" PERFORMER "Harry Gregson-Williams" ISRC USWD10527913 INDEX 01 00:00:00FILE "12 - Harry Gregson-Williams , The Battle.wav" WAVE TRACK 12 AUDIO TITLE "Harry Gregson-Williams / The Battle" PERFORMER "Harry Gregson-Williams" ISRC USWD10527914 INDEX 01 00:00:00FILE "13 - Harry Gregson-Williams , Only the Beginning of the Adventure.wav" WAVE TRACK 13 AUDIO TITLE "Harry Gregson-Williams / Only the Beginning of the Adventure" PERFORMER "Harry Gregson-Williams" ISRC USWD10527914 INDEX 01 00:00:00FILE "14 - Imogen Heap , Can't Take It In.wav" WAVE TRACK 14 AUDIO TITLE "Imogen Heap / Can't Take It In" PERFORMER "Harry Gregson-Williams" ISRC USWD10527925 INDEX 01 00:00:00FILE "15 - Alanis Morissette , Wunderkind.wav" WAVE TRACK 15 AUDIO TITLE "Alanis Morissette / Wunderkind" PERFORMER "Harry Gregson-Williams" ISRC USWD10527925 INDEX 01 00:00:00FILE "16 - Tim Finn , Winter Light.wav" WAVE TRACK 16 AUDIO TITLE "Tim Finn / Winter Light" PERFORMER "Harry Gregson-Williams" ISRC USWD10527923 INDEX 01 00:00:00FILE "17 - Lisbeth Scott , Where.wav" WAVE TRACK 17 AUDIO TITLE "Lisbeth Scott / Where" PERFORMER "Harry Gregson-Williams" ISRC USWD10527926 INDEX 01 00:00:00
 
REM GENRE ScoreREM DATE 2005REM DISCID 06118012REM COMMENT "ExactAudioCopy v0.99pb4"CATALOG 0050086137473PERFORMER "Harry Gregson-Williams"TITLE "The Chronicles of Narnia: The Lion, the Witch and the Wardrobe (Special Edition)"FILE "01 - Harry Gregson-Williams , The Blitz, 1940.wav" WAVE TRACK 01 AUDIO TITLE "The Blitz, 1940" PERFORMER "Harry Gregson-Williams" ISRC USWD10527903 INDEX 01 00:00:00FILE "02 - Harry Gregson-Williams , Evacuating London.wav" WAVE TRACK 02 AUDIO TITLE "Evacuating London" PERFORMER "Harry Gregson-Williams" ISRC USWD10527904 INDEX 01 00:00:00FILE "03 - Harry Gregson-Williams , The Wardrobe.wav" WAVE TRACK 03 AUDIO TITLE "The Wardrobe" PERFORMER "Harry Gregson-Williams" ISRC USWD10527905 INDEX 01 00:00:00FILE "04 - Harry Gregson-Williams , Lucy Meets Mr. Tumnus.wav" WAVE TRACK 04 AUDIO TITLE "Lucy Meets Mr. Tumnus" PERFORMER "Harry Gregson-Williams" ISRC USWD10527906 INDEX 01 00:00:00FILE "05 - Harry Gregson-Williams , A Narnia Lullaby.wav" WAVE TRACK 05 AUDIO TITLE "A Narnia Lullaby" PERFORMER "Harry Gregson-Williams" ISRC USWD10527907 INDEX 01 00:00:00FILE "06 - Harry Gregson-Williams , The White Witch.wav" WAVE TRACK 06 AUDIO TITLE "The White Witch" PERFORMER "Harry Gregson-Williams" ISRC USWD10527908 INDEX 01 00:00:00FILE "07 - Harry Gregson-Williams , From Western Woods to Beaversdam.wav" WAVE TRACK 07 AUDIO TITLE "From Western Woods to Beaversdam" PERFORMER "Harry Gregson-Williams" ISRC USWD10527909 INDEX 01 00:00:00FILE "08 - Harry Gregson-Williams , Father Christmass.wav" WAVE TRACK 08 AUDIO TITLE "Father Christmass" PERFORMER "Harry Gregson-Williams" ISRC USWD10527909 INDEX 01 00:00:00FILE "09 - Harry Gregson-Williams , To Aslan's Camp.wav" WAVE TRACK 09 AUDIO TITLE "To Aslan's Camp" PERFORMER "Harry Gregson-Williams" ISRC USWD10527911 INDEX 01 00:00:00FILE "10 - Harry Gregson-Williams , Knighting Peter.wav" WAVE TRACK 10 AUDIO TITLE "Knighting Peter" PERFORMER "Harry Gregson-Williams" ISRC USWD10527912 INDEX 01 00:00:00FILE "11 - Harry Gregson-Williams , The Stone Table.wav" WAVE TRACK 11 AUDIO TITLE "The Stone Table" PERFORMER "Harry Gregson-Williams" ISRC USWD10527913 INDEX 01 00:00:00FILE "12 - Harry Gregson-Williams , The Battle.wav" WAVE TRACK 12 AUDIO TITLE "The Battle" PERFORMER "Harry Gregson-Williams" ISRC USWD10527914 INDEX 01 00:00:00FILE "13 - Harry Gregson-Williams , Only the Beginning of the Adventure.wav" WAVE TRACK 13 AUDIO TITLE "Only the Beginning of the Adventure" PERFORMER "Harry Gregson-Williams" ISRC USWD10527914 INDEX 01 00:00:00FILE "14 - Imogen Heap , Can't Take It In.wav" WAVE TRACK 14 AUDIO TITLE "Can't Take It In" PERFORMER "Imogen Heap" ISRC USWD10527925 INDEX 01 00:00:00FILE "15 - Alanis Morissette , Wunderkind.wav" WAVE TRACK 15 AUDIO TITLE "Wunderkind" PERFORMER "Alanis Morissette" ISRC USWD10527925 INDEX 01 00:00:00FILE "16 - Tim Finn , Winter Light.wav" WAVE TRACK 16 AUDIO TITLE "Winter Light" PERFORMER "Tim Finn" ISRC USWD10527923 INDEX 01 00:00:00FILE "17 - Lisbeth Scott , Where.wav" WAVE TRACK 17 AUDIO TITLE "Where" PERFORMER "Lisbeth Scott" ISRC USWD10527926 INDEX 01 00:00:00


Трекер:  [ 19-Дек-2010 16:06 ]

  

Скачать .torrent

Размер .torrent файла 31 KB


Размер: 342 MB
Хэш (hash) релиза: c26201c827ab327ade328b1287f0589e4e219de3

bot

Топик был перенесен в форум Саундтреки к фильмам и мультфильмам (lossless)

Перенес AqvaGen

Хотите добавить комментарий к записи скачать торрент Хроники Нарнии: Лев, колдунья и волшебный шкаф The Chronicles Of Narnia: The Lion, The Witch And The Wardrobe

!Обратная связь