Скачать через торрент музыку Помни меня Remember Me - 2010, FLAC бесплатно без регистрации torrent

Если у вас наблюдаются проблемы со скриншотами, переходом по ссылками, скачиванием торрентов - проблемы в блокировщике рекламы AdBlock. #хорошегоДня!


Статистика раздачи
Размер:  432 MB   |    Зарегистрирован:  6 лет 9 месяцев   |    .torrent скачан:  48 раз   |   
Раздают:  1  
   
Загрузка...
 
Автор Сообщение

AqvaGen


Помни меня / Remember Me

Жанр: Soundtrack
Год выпуска диска / фильма: 2010
Страна-производитель диска: США
Издатель (лейбл): E1
Номер по каталогу: B003B1WM7E
Аудио кодек: FLAC (*.flac)
Тип рипа: tracks+.cue
Битрейт аудио: lossless
Продолжительность: 64:18
Источник: CD
Наличие сканов в содержимом раздачи: да
Треклист:
01. Luscious Jackson - Alien Lover (3:52)
02. Kottonmouth Kings - Play On (4:53)
03. National Skyline - Kandles (4:59)
04. Ani DiFranco - Soft Shoulder (6:06)
05. Two Ton Boa - Have Mercy (5:10)
06. Ed Harcourt - Hanging With the Wrong Crowd (3:42)
07. The Promise Ring - Why Did Ever We Meet (4:05)
08. Supergrass - You Can See Me (3:38)
09. Sparklehorse - Sea of Teeth (4:29)
10. Sigur RГіs - Andvari (6:36)
11. The Sea and Cake - Parasol (5:24)
12. US3 - Soul Brother (4:00)
13. Long Hind Legs - Open Wide (3:10)
14. Fonda - The Sun Keeps Shining On Me (4:08)
 
X Lossless Decoder version 20101010 (123.3)

XLD extraction logfile from 2010-10-18 13:35:54 -0400

Various Artists / Remember Me

Used drive : OPTIARC DVD RW AD-5680H (revision 3AHB)

Use cdparanoia mode : YES (CDParanoia III 10.2 engine)Disable audio cache : OK for the drive with cache less than 2750KBMake use of C2 pointers : NORead offset correction : 48Max retry count : 100Gap status : Analyzed, Appended

TOC of the extracted CD Track | Start | Length | Start sector | End sector --------------------------------------------------------- 1 | 00:00:00 | 03:52:36 | 0 | 17435 2 | 03:52:36 | 04:53:06 | 17436 | 39416 3 | 08:45:42 | 04:59:59 | 39417 | 61900 4 | 13:45:26 | 06:06:18 | 61901 | 89368 5 | 19:51:44 | 05:10:06 | 89369 | 112624 6 | 25:01:50 | 03:42:16 | 112625 | 129290 7 | 28:43:66 | 04:05:03 | 129291 | 147668 8 | 32:48:69 | 03:38:18 | 147669 | 164036 9 | 36:27:12 | 04:29:57 | 164037 | 184268 10 | 40:56:69 | 06:36:01 | 184269 | 213969 11 | 47:32:70 | 05:24:72 | 213970 | 238341 12 | 52:57:67 | 04:00:03 | 238342 | 256344 13 | 56:57:70 | 03:10:69 | 256345 | 270663 14 | 60:08:64 | 04:06:19 | 270664 | 289132

All Tracks Album gain : -8.57 dB Peak : 1.000000

Track 01 Filename : /Music/Various Artists - Remember Me (2010) [FLAC]/01 Alien Lover.flac Pre-gap length : 00:02:00

Track gain : -7.24 dB Peak : 1.000000 CRC32 hash (test run) : 1C8BF95B CRC32 hash : 1C8BF95B CRC32 hash (skip zero) : 91A1BD04 AccurateRip signature : 9AE7592B ->Track not present in AccurateRip database. Statistics Read error : 0 Skipped (treated as error) : 0 Edge jitter error (maybe fixed) : 0 Atom jitter error (maybe fixed) : 0 Drift error (maybe fixed) : 0 Dropped bytes error (maybe fixed) : 0 Duplicated bytes error (maybe fixed) : 0 Inconsistency in error sectors : 0

Track 02 Filename : /Music/Various Artists - Remember Me (2010) [FLAC]/02 Play On.flac

Track gain : -8.47 dB Peak : 0.966064 CRC32 hash (test run) : 0F6F0452 CRC32 hash : 0F6F0452 CRC32 hash (skip zero) : 10333532 AccurateRip signature : 9B5BCE45 ->Track not present in AccurateRip database. Statistics Read error : 0 Skipped (treated as error) : 0 Edge jitter error (maybe fixed) : 1 Atom jitter error (maybe fixed) : 0 Drift error (maybe fixed) : 0 Dropped bytes error (maybe fixed) : 1 Duplicated bytes error (maybe fixed) : 1 Inconsistency in error sectors : 0

Track 03 Filename : /Music/Various Artists - Remember Me (2010) [FLAC]/03 Kandles.flac

Track gain : -9.37 dB Peak : 1.000000 CRC32 hash (test run) : 882AC0AE CRC32 hash : 882AC0AE CRC32 hash (skip zero) : AE351347 AccurateRip signature : E8299040 ->Track not present in AccurateRip database. Statistics Read error : 0 Skipped (treated as error) : 0 Edge jitter error (maybe fixed) : 0 Atom jitter error (maybe fixed) : 0 Drift error (maybe fixed) : 0 Dropped bytes error (maybe fixed) : 0 Duplicated bytes error (maybe fixed) : 0 Inconsistency in error sectors : 0

Track 04 Filename : /Music/Various Artists - Remember Me (2010) [FLAC]/04 Soft Shoulder.flac

Track gain : -7.45 dB Peak : 1.000000 CRC32 hash (test run) : 0990F6CC CRC32 hash : 0990F6CC CRC32 hash (skip zero) : 0D05CCF5 AccurateRip signature : 7A306B67 ->Track not present in AccurateRip database. Statistics Read error : 0 Skipped (treated as error) : 0 Edge jitter error (maybe fixed) : 0 Atom jitter error (maybe fixed) : 0 Drift error (maybe fixed) : 0 Dropped bytes error (maybe fixed) : 0 Duplicated bytes error (maybe fixed) : 0 Inconsistency in error sectors : 0

Track 05 Filename : /Music/Various Artists - Remember Me (2010) [FLAC]/05 Have Mercy.flac

Track gain : -7.08 dB Peak : 1.000000 CRC32 hash (test run) : C0F5BE08 CRC32 hash : C0F5BE08 CRC32 hash (skip zero) : 07589283 AccurateRip signature : 9B9B86D8 ->Track not present in AccurateRip database. Statistics Read error : 0 Skipped (treated as error) : 0 Edge jitter error (maybe fixed) : 0 Atom jitter error (maybe fixed) : 0 Drift error (maybe fixed) : 0 Dropped bytes error (maybe fixed) : 0 Duplicated bytes error (maybe fixed) : 0 Inconsistency in error sectors : 0

Track 06 Filename : /Music/Various Artists - Remember Me (2010) [FLAC]/06 Hanging With The Wrong Crowd.flac

Track gain : -8.69 dB Peak : 1.000000 CRC32 hash (test run) : 27287598 CRC32 hash : 27287598 CRC32 hash (skip zero) : DC4A911D AccurateRip signature : AC830D6C ->Track not present in AccurateRip database. Statistics Read error : 0 Skipped (treated as error) : 0 Edge jitter error (maybe fixed) : 0 Atom jitter error (maybe fixed) : 0 Drift error (maybe fixed) : 0 Dropped bytes error (maybe fixed) : 0 Duplicated bytes error (maybe fixed) : 0 Inconsistency in error sectors : 0

Track 07 Filename : /Music/Various Artists - Remember Me (2010) [FLAC]/07 Why Did We Ever Meet.flac

Track gain : -9.02 dB Peak : 0.966064 CRC32 hash (test run) : 0722A7F6 CRC32 hash : 0722A7F6 CRC32 hash (skip zero) : 9C650682 AccurateRip signature : 308D3417 ->Track not present in AccurateRip database. Statistics Read error : 0 Skipped (treated as error) : 0 Edge jitter error (maybe fixed) : 0 Atom jitter error (maybe fixed) : 0 Drift error (maybe fixed) : 0 Dropped bytes error (maybe fixed) : 0 Duplicated bytes error (maybe fixed) : 0 Inconsistency in error sectors : 0

Track 08 Filename : /Music/Various Artists - Remember Me (2010) [FLAC]/08 You Can See Me.flac

Track gain : -8.45 dB Peak : 1.000000 CRC32 hash (test run) : 36EA43CC CRC32 hash : 36EA43CC CRC32 hash (skip zero) : 91DFA9D3 AccurateRip signature : 66A29C2C ->Track not present in AccurateRip database. Statistics Read error : 0 Skipped (treated as error) : 0 Edge jitter error (maybe fixed) : 0 Atom jitter error (maybe fixed) : 0 Drift error (maybe fixed) : 0 Dropped bytes error (maybe fixed) : 0 Duplicated bytes error (maybe fixed) : 0 Inconsistency in error sectors : 0

Track 09 Filename : /Music/Various Artists - Remember Me (2010) [FLAC]/09 Sea Of Teeth.flac

Track gain : -5.15 dB Peak : 1.000000 CRC32 hash (test run) : 55C52027 CRC32 hash : 55C52027 CRC32 hash (skip zero) : 83CD55DF AccurateRip signature : DC957916 ->Track not present in AccurateRip database. Statistics Read error : 0 Skipped (treated as error) : 0 Edge jitter error (maybe fixed) : 0 Atom jitter error (maybe fixed) : 0 Drift error (maybe fixed) : 0 Dropped bytes error (maybe fixed) : 0 Duplicated bytes error (maybe fixed) : 0 Inconsistency in error sectors : 0

Track 10 Filename : /Music/Various Artists - Remember Me (2010) [FLAC]/10 Andvari.flac

Track gain : -4.77 dB Peak : 1.000000 CRC32 hash (test run) : B7AC9B01 CRC32 hash : B7AC9B01 CRC32 hash (skip zero) : B3CCC3DD AccurateRip signature : 9040B276 ->Track not present in AccurateRip database. Statistics Read error : 0 Skipped (treated as error) : 0 Edge jitter error (maybe fixed) : 0 Atom jitter error (maybe fixed) : 0 Drift error (maybe fixed) : 0 Dropped bytes error (maybe fixed) : 0 Duplicated bytes error (maybe fixed) : 0 Inconsistency in error sectors : 0

Track 11 Filename : /Music/Various Artists - Remember Me (2010) [FLAC]/11 Parasol.flac

Track gain : -7.09 dB Peak : 1.000000 CRC32 hash (test run) : 4C441E56 CRC32 hash : 4C441E56 CRC32 hash (skip zero) : 9B7F41D1 AccurateRip signature : 4E709D6F ->Track not present in AccurateRip database. Statistics Read error : 0 Skipped (treated as error) : 0 Edge jitter error (maybe fixed) : 0 Atom jitter error (maybe fixed) : 0 Drift error (maybe fixed) : 0 Dropped bytes error (maybe fixed) : 0 Duplicated bytes error (maybe fixed) : 0 Inconsistency in error sectors : 0

Track 12 Filename : /Music/Various Artists - Remember Me (2010) [FLAC]/12 Soul Brother.flac

Track gain : -7.30 dB Peak : 1.000000 CRC32 hash (test run) : 550C9D08 CRC32 hash : 550C9D08 CRC32 hash (skip zero) : 1F087EF9 AccurateRip signature : 47FAD18C ->Track not present in AccurateRip database. Statistics Read error : 0 Skipped (treated as error) : 0 Edge jitter error (maybe fixed) : 0 Atom jitter error (maybe fixed) : 0 Drift error (maybe fixed) : 0 Dropped bytes error (maybe fixed) : 0 Duplicated bytes error (maybe fixed) : 0 Inconsistency in error sectors : 0

Track 13 Filename : /Music/Various Artists - Remember Me (2010) [FLAC]/13 Open Wide.flac

Track gain : -9.20 dB Peak : 0.966064 CRC32 hash (test run) : 21D3DEE1 CRC32 hash : 21D3DEE1 CRC32 hash (skip zero) : B1A2E0AF AccurateRip signature : 62CFB251 ->Track not present in AccurateRip database. Statistics Read error : 0 Skipped (treated as error) : 0 Edge jitter error (maybe fixed) : 0 Atom jitter error (maybe fixed) : 0 Drift error (maybe fixed) : 0 Dropped bytes error (maybe fixed) : 0 Duplicated bytes error (maybe fixed) : 0 Inconsistency in error sectors : 0

Track 14 Filename : /Music/Various Artists - Remember Me (2010) [FLAC]/14 The Sun Keeps Shining On Me.flac

Track gain : -10.09 dB Peak : 1.000000 CRC32 hash (test run) : F058B923 CRC32 hash : F058B923 CRC32 hash (skip zero) : D83A0CE2 AccurateRip signature : 8ED8C92A ->Track not present in AccurateRip database. Statistics Read error : 0 Skipped (treated as error) : 0 Edge jitter error (maybe fixed) : 0 Atom jitter error (maybe fixed) : 0 Drift error (maybe fixed) : 0 Dropped bytes error (maybe fixed) : 0 Duplicated bytes error (maybe fixed) : 0 Inconsistency in error sectors : 0

No errors occurred

End of status report
 
TITLE "Remember Me"PERFORMER "Various Artists"REM GENRE "Soundtrack"REM DATE 2010REM DISCID CA0F0F0EREM REPLAYGAIN_ALBUM_GAIN -8.57 dBREM REPLAYGAIN_ALBUM_PEAK 1.000000FILE "01 Alien Lover.wav" WAVE TRACK 01 AUDIO TITLE "Alien Lover" PERFORMER "Luscious Jackson" REM REPLAYGAIN_TRACK_GAIN -7.24 dB REM REPLAYGAIN_TRACK_PEAK 1.000000 INDEX 01 00:00:00FILE "02 Play On.wav" WAVE TRACK 02 AUDIO TITLE "Play On" PERFORMER "Kottonmouth Kings" REM REPLAYGAIN_TRACK_GAIN -8.47 dB REM REPLAYGAIN_TRACK_PEAK 0.966064 INDEX 01 00:00:00FILE "03 Kandles.wav" WAVE TRACK 03 AUDIO TITLE "Kandles" PERFORMER "National Skyline" REM REPLAYGAIN_TRACK_GAIN -9.37 dB REM REPLAYGAIN_TRACK_PEAK 1.000000 INDEX 01 00:00:00FILE "04 Soft Shoulder.wav" WAVE TRACK 04 AUDIO TITLE "Soft Shoulder" PERFORMER "Ani DiFranco" REM REPLAYGAIN_TRACK_GAIN -7.45 dB REM REPLAYGAIN_TRACK_PEAK 1.000000 INDEX 01 00:00:00FILE "05 Have Mercy.wav" WAVE TRACK 05 AUDIO TITLE "Have Mercy" PERFORMER "Two Ton Boa" REM REPLAYGAIN_TRACK_GAIN -7.08 dB REM REPLAYGAIN_TRACK_PEAK 1.000000 INDEX 01 00:00:00FILE "06 Hanging With The Wrong Crowd.wav" WAVE TRACK 06 AUDIO TITLE "Hanging With The Wrong Crowd" PERFORMER "Ed Harcourt" REM REPLAYGAIN_TRACK_GAIN -8.69 dB REM REPLAYGAIN_TRACK_PEAK 1.000000 INDEX 01 00:00:00FILE "07 Why Did We Ever Meet.wav" WAVE TRACK 07 AUDIO TITLE "Why Did We Ever Meet" PERFORMER "The Promise Ring" REM REPLAYGAIN_TRACK_GAIN -9.02 dB REM REPLAYGAIN_TRACK_PEAK 0.966064 INDEX 01 00:00:00FILE "08 You Can See Me.wav" WAVE TRACK 08 AUDIO TITLE "You Can See Me" PERFORMER "Supergrass" REM REPLAYGAIN_TRACK_GAIN -8.45 dB REM REPLAYGAIN_TRACK_PEAK 1.000000 INDEX 01 00:00:00FILE "09 Sea Of Teeth.wav" WAVE TRACK 09 AUDIO TITLE "Sea Of Teeth" PERFORMER "Sparklehorse" REM REPLAYGAIN_TRACK_GAIN -5.15 dB REM REPLAYGAIN_TRACK_PEAK 1.000000 INDEX 01 00:00:00FILE "10 Andvari.wav" WAVE TRACK 10 AUDIO TITLE "Andvari" PERFORMER "Sigur Rós" REM REPLAYGAIN_TRACK_GAIN -4.77 dB REM REPLAYGAIN_TRACK_PEAK 1.000000 INDEX 01 00:00:00FILE "11 Parasol.wav" WAVE TRACK 11 AUDIO TITLE "Parasol" PERFORMER "The Sea And Cake" REM REPLAYGAIN_TRACK_GAIN -7.09 dB REM REPLAYGAIN_TRACK_PEAK 1.000000 INDEX 01 00:00:00FILE "12 Soul Brother.wav" WAVE TRACK 12 AUDIO TITLE "Soul Brother" PERFORMER "US3" REM REPLAYGAIN_TRACK_GAIN -7.30 dB REM REPLAYGAIN_TRACK_PEAK 1.000000 INDEX 01 00:00:00FILE "13 Open Wide.wav" WAVE TRACK 13 AUDIO TITLE "Open Wide" PERFORMER "Long Hind Legs" REM REPLAYGAIN_TRACK_GAIN -9.20 dB REM REPLAYGAIN_TRACK_PEAK 0.966064 INDEX 01 00:00:00FILE "14 The Sun Keeps Shining On Me.wav" WAVE TRACK 14 AUDIO TITLE "The Sun Keeps Shining On Me" PERFORMER "Fonda" REM REPLAYGAIN_TRACK_GAIN -10.09 dB REM REPLAYGAIN_TRACK_PEAK 1.000000 INDEX 01 00:00:00


Трекер:  [ 19-Дек-2010 15:55 ]

  

Скачать .torrent

Размер .torrent файла 18 KB


Размер: 432 MB
Хэш (hash) релиза: 18829e156033993cbe20078b1df3a14d3d7999f3

bot

Топик был перенесен в форум Саундтреки к фильмам и мультфильмам (lossless)

Перенес AqvaGen

Хотите добавить комментарий к записи скачать торрент Помни меня Remember Me - 2010, FLAC

!Обратная связь