Скачать через торрент музыку Various Artists - Transformers: Revenge of the Fallen - 2009, FLAC бесплатно без регистрации torrent

Если у вас наблюдаются проблемы со скриншотами, переходом по ссылками, скачиванием торрентов - проблемы в блокировщике рекламы AdBlock. #хорошегоДня!


Статистика раздачи
Размер:  372 MB   |    Зарегистрирован:  6 лет 7 месяцев   |    .torrent скачан:  60 раз   |   
Раздают:  1  
   
Загрузка...
 
Автор Сообщение

AqvaGen


Transformers
Revenge of the Fallen



Жанр: Soundtrack
Год выпуска диска: 2009
Производитель диска: USA
Аудио кодек: FLAC
Тип рипа: tracks+.cue
Битрейт аудио: lossless
Продолжительность: 51:59

Трэклист:

01. New Divide - Linkin Park 4:28
02. 21 Guns - Green Day 5:17
03. Let It Go - Cavo 3:46
04. Capital M-E - Taking Back Sunday 2:48
05. Never Say Never - The Fray 4:19
06. Burn It To The Ground - Nickelback 3:29
07. Burning Down The House - The Used 3:39
08. Not Meant To Be - Theory Of A Deadman 3:34
09. Real World - The All-American Rejects 4:03
10. Dont Think I Love - Hoobastank 3:40
11. This Is It - Staind 3:44
12. Almost Easy - Avenged Sevenfold 3:54
13. Transformers Theme - Cheap Trick 3:54
 
Exact Audio Copy V0.99 prebeta 5 from 4. May 2009

EAC extraction logfile from 27. June 2009, 13:29

Various Artists / Transformers: Revenge Of The Fallen The Album

Used drive : HL-DT-STDVDRAM GH20NS10 Adapter: 1 ID: 0

Read mode : SecureUtilize accurate stream : YesDefeat audio cache : YesMake use of C2 pointers : No

Read offset correction : 667Overread into Lead-In and Lead-Out : NoFill up missing offset samples with silence : YesDelete leading and trailing silent blocks : NoNull samples used in CRC calculations : YesUsed interface : Native Win32 interface for Win NT & 2000Gap handling : Appended to previous track

Used output format : User Defined EncoderSelected bitrate : 1024 kBit/sQuality : HighAdd ID3 tag : NoCommand line compressor : J:\PortableApps\EACPortable\App\FLAC\flac.exeAdditional command line options : -V -8 -T "artist=%a" -T "title=%t" -T "album=%g" -T "date=%y" -T "tracknumber=%n" -T "genre=%m" %s

TOC of the extracted CD

Track | Start | Length | Start sector | End sector --------------------------------------------------------- 1 | 0:00.00 | 4:29.20 | 0 | 20194 2 | 4:29.20 | 5:18.22 | 20195 | 44066 3 | 9:47.42 | 3:47.07 | 44067 | 61098 4 | 13:34.49 | 2:48.51 | 61099 | 73749 5 | 16:23.25 | 4:19.17 | 73750 | 93191 6 | 20:42.42 | 3:30.25 | 93192 | 108966 7 | 24:12.67 | 3:39.51 | 108967 | 125442 8 | 27:52.43 | 3:34.67 | 125443 | 141559 9 | 31:27.35 | 4:04.14 | 141560 | 159873 10 | 35:31.49 | 3:41.46 | 159874 | 176494 11 | 39:13.20 | 3:45.23 | 176495 | 193392 12 | 42:58.43 | 3:55.55 | 193393 | 211072 13 | 46:54.23 | 5:05.51 | 211073 | 233998

Track 1

Filename C:\Users\Jason\Desktop\Various Artists - 2009 - Transformers- Revenge Of The Fallen The Album [FLAC]\01 [Linkin Park] New Divide.wav

Pre-gap length 0:00:02.00

Peak level 100.0 % Track quality 100.0 % Test CRC 4AB92DC8 Copy CRC 4AB92DC8 Copy OK

Track 2

Filename C:\Users\Jason\Desktop\Various Artists - 2009 - Transformers- Revenge Of The Fallen The Album [FLAC]\02 [Green Day] 21 Guns.wav

Pre-gap length 0:00:00.49

Peak level 92.1 % Track quality 100.0 % Test CRC D26EB943 Copy CRC D26EB943 Copy OK

Track 3

Filename C:\Users\Jason\Desktop\Various Artists - 2009 - Transformers- Revenge Of The Fallen The Album [FLAC]\03 [Cavo] Let It Go.wav

Pre-gap length 0:00:00.70

Peak level 98.8 % Track quality 100.0 % Test CRC D063819B Copy CRC D063819B Copy OK

Track 4

Filename C:\Users\Jason\Desktop\Various Artists - 2009 - Transformers- Revenge Of The Fallen The Album [FLAC]\04 [Taking Back Sunday] Capital M-E.wav

Pre-gap length 0:00:00.43

Peak level 98.8 % Track quality 99.9 % Test CRC 8B2E84E1 Copy CRC 8B2E84E1 Copy OK

Track 5

Filename C:\Users\Jason\Desktop\Various Artists - 2009 - Transformers- Revenge Of The Fallen The Album [FLAC]\05 [The Fray] Never Say Never.wav

Pre-gap length 0:00:00.24

Peak level 98.8 % Track quality 100.0 % Test CRC 55571DC8 Copy CRC 55571DC8 Copy OK

Track 6

Filename C:\Users\Jason\Desktop\Various Artists - 2009 - Transformers- Revenge Of The Fallen The Album [FLAC]\06 [Nickelback] Burn It To The Ground.wav

Pre-gap length 0:00:00.04

Peak level 98.8 % Track quality 100.0 % Test CRC 0A5BA64E Copy CRC 0A5BA64E Copy OK

Track 7

Filename C:\Users\Jason\Desktop\Various Artists - 2009 - Transformers- Revenge Of The Fallen The Album [FLAC]\07 [The Used] Burning Down The House.wav

Pre-gap length 0:00:00.60

Peak level 99.9 % Track quality 100.0 % Test CRC 68652F59 Copy CRC 68652F59 Copy OK

Track 8

Filename C:\Users\Jason\Desktop\Various Artists - 2009 - Transformers- Revenge Of The Fallen The Album [FLAC]\08 [Theory Of A Deadman] Not Meant To Be.wav

Pre-gap length 0:00:00.23

Peak level 98.8 % Track quality 100.0 % Test CRC 8E2272EE Copy CRC 8E2272EE Copy OK

Track 9

Filename C:\Users\Jason\Desktop\Various Artists - 2009 - Transformers- Revenge Of The Fallen The Album [FLAC]\09 [The All-American Rejects] Real World.wav

Pre-gap length 0:00:00.42

Peak level 98.8 % Track quality 100.0 % Test CRC 3226EA3C Copy CRC 3226EA3C Copy OK

Track 10

Filename C:\Users\Jason\Desktop\Various Artists - 2009 - Transformers- Revenge Of The Fallen The Album [FLAC]\10 [Hoobastank] I Don't Think I Love You.wav

Pre-gap length 0:00:00.30

Peak level 99.9 % Track quality 100.0 % Test CRC EDF53FC4 Copy CRC EDF53FC4 Copy OK

Track 11

Filename C:\Users\Jason\Desktop\Various Artists - 2009 - Transformers- Revenge Of The Fallen The Album [FLAC]\11 [Staind] This Is It.wav

Pre-gap length 0:00:01.42

Peak level 98.8 % Track quality 100.0 % Test CRC 13A4FFCE Copy CRC 13A4FFCE Copy OK

Track 12

Filename C:\Users\Jason\Desktop\Various Artists - 2009 - Transformers- Revenge Of The Fallen The Album [FLAC]\12 [Avenged Sevenfold] Almost Easy.wav

Pre-gap length 0:00:00.39

Peak level 99.9 % Track quality 100.0 % Test CRC F1F6C40C Copy CRC F1F6C40C Copy OK

Track 13

Filename C:\Users\Jason\Desktop\Various Artists - 2009 - Transformers- Revenge Of The Fallen The Album [FLAC]\13 [Cheap Trick] Transformers- The Fallen Remix.wav

Pre-gap length 0:00:01.20

Peak level 98.8 % Track quality 100.0 % Test CRC 8B8F4F1D Copy CRC 8B8F4F1D Copy OK

No errors occurred

End of status report


Трекер:  [ 09-Фев-2011 15:39 ]

  

Скачать .torrent

Размер .torrent файла 16 KB


Размер: 372 MB
Хэш (hash) релиза: 4e812109bfd10272facd3a463533cbfc52b83e67

bot

Топик был перенесен в форум Саундтреки к фильмам и мультфильмам (lossless)

Перенес AqvaGen

Хотите добавить комментарий к записи скачать торрент Various Artists - Transformers: Revenge of the Fallen - 2009, FLAC

!Обратная связь