Скачать через торрент музыку Hans Zimmer - Black Hawk Down Падение черного ястреба - 2002, FLAC бесплатно без регистрации torrent

Если у вас наблюдаются проблемы со скриншотами, переходом по ссылками, скачиванием торрентов - проблемы в блокировщике рекламы AdBlock. #хорошегоДня!


Статистика раздачи
Размер:  354 MB   |    Зарегистрирован:  6 лет 2 месяца   |    .torrent скачан:  45 раз   |   
Раздают:  1  
   
Загрузка...
 
Автор Сообщение

Galfimbul

avatar Galfimbul


Hans Zimmer - Black Hawk Down



Жанр: Score
Год выпуска диска: 2002
Производитель диска: Universal Classics Group, a Division of UMG Recordings, Inc. (U.S.A.) (Decca 017 012-2)
Аудио кодек: FLAC (flac 1.2.1 Q8)
Тип рипа: image+.cue (EAC V0.99 pß 5)
Битрейт аудио: lossless
Продолжительность: 1:07:03.64
Источник рипа: Native rip from original CD
Трэклист:
01. Hunger [0:06:35.54]
02. Barra Barra (Performed By Rachid Taha) [0:05:47.60]
03. Vale Of Plenty [0:02:27.66]
04. Chant [0:02:33.70]
05. Still [0:04:48.14]
06. Mogadishu Blues [0:02:53.39]
07. Synchrotone [0:08:55.11]
08. Bakara [0:03:12.33]
09. Of The Earth [0:02:19.11]
10. Ashes To Ashes [0:04:43.22]
11. Gortoz A Ran - J'Attends (Performed By Denez Prigent & Lisa Gerrard) [0:05:51.48]
12. Tribal War [0:02:39.32]
13. Leave No Man Behind [0:06:18.57]
14. Minstrel Boy (Film Version) (Performed By Joe Strummer & The Mescaleros) [0:05:42.44]
15. Still Reprise [0:02:14.28]

Awards for Black Hawk Down (2001)
Year 2002 - won:
- Academy Award for Best Editing (Pietro Scalia)
- Academy Award for Best Sound (Michael Minkler, Myron Nettinga, Chris Munro)
- Golden Reel Award from the Motion Picture Sound Editors, USA for Best Sound Editing - Effects and Foley, Domestic Feature Film
- Harry Award
 
Exact Audio Copy V0.99 prebeta 5 from 4. May 2009

EAC extraction logfile from 25. March 2010, 20:11

Hans Zimmer / Black Hawk Down

Used drive : HL-DT-STDVD-RAM GH22LS30 Adapter: 1 ID: 2

Read mode : SecureUtilize accurate stream : YesDefeat audio cache : YesMake use of C2 pointers : No

Read offset correction : 102Overread into Lead-In and Lead-Out : NoFill up missing offset samples with silence : YesDelete leading and trailing silent blocks : NoNull samples used in CRC calculations : YesUsed interface : Native Win32 interface for Win NT & 2000

Used output format : User Defined EncoderSelected bitrate : 320 kBit/sQuality : HighAdd ID3 tag : NoCommand line compressor : C:\Program Files\Exact Audio Copy\flac.exeAdditional command line options : -8 -V -T "artist=%a" -T "title=%t" -T "album=%g" -T "date=%y" -T "tracknumber=%n" -T "genre=%m" -T "comment=EAC V0.99 pß 5 & flac 1.2.1 Q8" %s

TOC of the extracted CD

Track | Start | Length | Start sector | End sector --------------------------------------------------------- 1 | 0:00.00 | 6:35.54 | 0 | 29678 2 | 6:35.54 | 5:47.60 | 29679 | 55763 3 | 12:23.39 | 2:27.66 | 55764 | 66854 4 | 14:51.30 | 2:33.70 | 66855 | 78399 5 | 17:25.25 | 4:48.14 | 78400 | 100013 6 | 22:13.39 | 2:53.39 | 100014 | 113027 7 | 25:07.03 | 8:55.11 | 113028 | 153163 8 | 34:02.14 | 3:12.33 | 153164 | 167596 9 | 37:14.47 | 2:19.11 | 167597 | 178032 10 | 39:33.58 | 4:43.22 | 178033 | 199279 11 | 44:17.05 | 5:51.48 | 199280 | 225652 12 | 50:08.53 | 2:39.32 | 225653 | 237609 13 | 52:48.10 | 6:18.57 | 237610 | 266016 14 | 59:06.67 | 5:42.44 | 266017 | 291710 15 | 64:49.36 | 2:14.28 | 291711 | 301788

Range status and errors

Selected range

Filename F:\TMP\AUDIO_TMP\EAC_TMP\Hans Zimmer - Black Hawk Down.wav

Peak level 97.4 % Range quality 100.0 % Test CRC 3AEAA283 Copy CRC 3AEAA283 Copy OK

No errors occurred

AccurateRip summary

Track 1 accurately ripped (confidence 17) [2334D8FD]Track 2 accurately ripped (confidence 17) [44546089]Track 3 accurately ripped (confidence 17) [F595E187]Track 4 accurately ripped (confidence 17) [CA64C5E5]Track 5 accurately ripped (confidence 17) [F4E0498F]Track 6 accurately ripped (confidence 18) [97A2945A]Track 7 accurately ripped (confidence 17) [047DCC17]Track 8 accurately ripped (confidence 18) [AE158C10]Track 9 accurately ripped (confidence 18) [6FD3A6C7]Track 10 accurately ripped (confidence 18) [2C78ED3A]Track 11 accurately ripped (confidence 18) [6E7D702F]Track 12 accurately ripped (confidence 18) [F8E605F0]Track 13 accurately ripped (confidence 18) [C424C7A6]Track 14 accurately ripped (confidence 18) [D2B499DF]Track 15 accurately ripped (confidence 17) [7F425EE4]

All tracks accurately ripped

End of status report
(by William Ruhlmann)

Once again, director Ridley Scott has employed composer Hans Zimmer to score a motion picture, following their collaboration on Gladiator (2000) and Hannibal (2001). From ancient Rome to the world of a serial killer, Scott's settings vary considerably, and Black Hawk Down presents yet another musical challenge, set in Mogadishu, Somalia, during a failed mission by UN peacekeeping (i.e., U.S. military) personnel in 1993. Zimmer has done his homework on traditional North African music as it meets the late 20th century; his work combines identifiably Middle Eastern strains with elements of techno. The key to the approach is the use of vocalists Baaba Maal ("Hunger," "Still") and Rachid Taha (Taha's own co-composition "Barra Barra"). Although the music is quite aggressive early on, the later tracks reflect the mission's troubles. Denez Prigent and Lisa Gerrard's "Gortoz a Ran -- J'Attends" is distinctly elegiac, and the symphonic "Leave No Man Behind" toward the end makes it clear that, even if men haven't been left behind, they haven't necessarily been brought back alive. This sadness is given its final expression in a new recording of the traditional song "Minstrel Boy" by Joe Strummer and the Mescaleros (an earlier version is on their 2001 album Global a Go-Go) that plays over the credits. Zimmer used an unusual method to play this score, putting together the BHD Band, consisting of himself on keyboards, guitarists Michael Brook and Heitor Pereira, and string players Craig Eastman and Martin Tillman, and in effect jamming on much of the music, with orchestral scoring added later. He has achieved a style that works well for the downbeat, if suspenseful, tone of the film and its exotic setting.

Source:


Трекер:  [ 07-Июл-2011 23:20 ]

  

Скачать .torrent

Размер .torrent файла 15 KB


Размер: 354 MB
Хэш (hash) релиза: ba3bf80c81385f9b5c22d1d64e27f1967e957502

Еще никто не оставлял запись к записи скачать торрент Hans Zimmer - Black Hawk Down Падение черного ястреба - 2002, FLAC . Будь первым!

!Обратная связь