Скачать через торрент музыку Бесконечная история The Neverending Story бесплатно без регистрации torrent

Если у вас наблюдаются проблемы со скриншотами, переходом по ссылками, скачиванием торрентов - проблемы в блокировщике рекламы AdBlock. #хорошегоДня!


Статистика раздачи
Размер:  222 MB   |    Зарегистрирован:  6 лет 2 месяца   |    .torrent скачан:  49 раз   |   
Раздают:  1  
   
Загрузка...
 
Автор Сообщение

Galfimbul

avatar Galfimbul


Бесконечная история / The Neverending Story

Жанр: Score
Год выпуска диска: 1991
Производитель диска: Japan EMI TOCP-3039
Аудио кодек: WAVPack
Тип рипа: tracks+.cue
Битрейт аудио: lossless
Продолжительность: 00:36:36
Трэклист:
1. Never Ending Story (03:32)
(performed by Limahl)
2. Swamps Of Sadness (01:57)
3. Ivory Tower (03:10)
4. Ruined Landscape (03:03)
5. Sleepy Dragon (03:58)
(Tracks 1-5 perfomed by Giorgio Moroder)
6. Bastian's Happy Flight (03:16)
7. Fantasia (00:55)
8. Atreju's Quest (02:51)
9. Theme Of Sadness (02:42)
10. Atreju Meets Falkor (02:30)
11. Mirrorgate - Southern Oracle (03:09)
12. Gmork (00:28)
13. Moonchild (01:23)
14. The Auryn (02:20)
15. Happy Flight (01:22)
(Tracks 6-15 performed by Klaus Doldinger)

Доп. информация: + covers 600 dpi
 
Exact Audio Copy V0.99 prebeta 5 from 4. May 2009

Отчёт EAC об извлечении, выполненном 6. июня 2010, 10:22

Various / The NeverEnding Story

Дисковод: Optiarc DVD RW AD-7201A Adapter: 1 ID: 0

Режим чтения : ДостоверностьИспользование точного потока : ДаОтключение кэша аудио : ДаИспользование указателей C2 : Нет

Коррекция смещения при чтении : 48Способность читать области Lead-in и Lead-out : НетЗаполнение пропущенных сэмплов тишиной : ДаУдаление блоков с тишиной в начале и конце : НетПри вычислениях CRC использовались нулевые сэмплы : ДаИнтерфейс : Установленный внешний ASPI-интерфейсОбработка зазоров : Добавлено к предыдущему треку

Выходной формат : Пользовательский кодировщикВыбранный битрейт : 1024 kBit/sКачество : ВысокийДобавление ID3-тэга : НетУтилита сжатия : C:\wavpack-4.60.1\wavpack.exeДополнительные параметры : -hmx3 -w "Year=%y" -w "Genre=%m" %s %d

TOC извлечённого CD

Трек | Старт | Длительность | Начальный сектор | Конечный сектор --------------------------------------------------------------------- 1 | 0:00.00 | 3:35.25 | 0 | 16149 2 | 3:35.25 | 1:55.47 | 16150 | 24821 3 | 5:30.72 | 3:09.65 | 24822 | 39061 4 | 8:40.62 | 3:01.38 | 39062 | 52674 5 | 11:42.25 | 3:57.50 | 52675 | 70499 6 | 15:40.00 | 3:15.40 | 70500 | 85164 7 | 18:55.40 | 0:54.35 | 85165 | 89249 8 | 19:50.00 | 2:49.37 | 89250 | 101961 9 | 22:39.37 | 2:41.63 | 101962 | 114099 10 | 25:21.25 | 2:30.47 | 114100 | 125396 11 | 27:51.72 | 3:08.00 | 125397 | 139496 12 | 30:59.72 | 0:27.28 | 139497 | 141549 13 | 31:27.25 | 1:22.37 | 141550 | 147736 14 | 32:49.62 | 2:17.33 | 147737 | 158044 15 | 35:07.20 | 1:22.07 | 158045 | 164201

Трек 1

Имя файла E:\torrent\The_NeverEnding_Story_OST\The NeverEnding Story_OST\Limahl - The NeverEnding Story - 01. The NeverEnding Story.wav

Длина предзазора 0:00:02.00

Пиковый уровень 95.0 % Качество трека 100.0 % CRC копии 2AE903AA Точность не определена (достоверность 1) [7CDF837D], AccurateRip вернул [42149228] Копирование... OK

Трек 2

Имя файла E:\torrent\The_NeverEnding_Story_OST\The NeverEnding Story_OST\Giorgio Moroder - The NeverEnding Story - 02. Swamps Of Sadness.wav

Длина предзазора 0:00:01.03

Пиковый уровень 45.7 % Качество трека 100.0 % CRC копии 5DEF4485 Точность не определена (достоверность 1) [41BE20BB], AccurateRip вернул [7D440408] Копирование... OK

Трек 3

Имя файла E:\torrent\The_NeverEnding_Story_OST\The NeverEnding Story_OST\Giorgio Moroder - The NeverEnding Story - 03. Ivory Tower.wav

Пиковый уровень 80.9 % Качество трека 100.0 % CRC копии 374D6484 Точность не определена (достоверность 1) [DE9E450B], AccurateRip вернул [E5497D56] Копирование... OK

Трек 4

Имя файла E:\torrent\The_NeverEnding_Story_OST\The NeverEnding Story_OST\Giorgio Moroder - The NeverEnding Story - 04. Ruined Landscape.wav

Длина предзазора 0:00:01.10

Пиковый уровень 95.5 % Качество трека 100.0 % CRC копии 9E4B5C45 Точность не определена (достоверность 1) [16109D4B], AccurateRip вернул [412E05FC] Копирование... OK

Трек 5

Имя файла E:\torrent\The_NeverEnding_Story_OST\The NeverEnding Story_OST\Giorgio Moroder - The NeverEnding Story - 05. Sleepy Dragon.wav

Пиковый уровень 80.7 % Качество трека 100.0 % CRC копии 198E3F42 Точность не определена (достоверность 1) [48EE6532], AccurateRip вернул [B5D59BED] Копирование... OK

Трек 6

Имя файла E:\torrent\The_NeverEnding_Story_OST\The NeverEnding Story_OST\Klaus Doldinger - The NeverEnding Story - 06. Bastian's Happy Flight.wav

Длина предзазора 0:00:01.13

Пиковый уровень 99.1 % Качество трека 100.0 % CRC копии BC71D827 Точность не определена (достоверность 1) [C006B694], AccurateRip вернул [4FD5C5C3] Копирование... OK

Трек 7

Имя файла E:\torrent\The_NeverEnding_Story_OST\The NeverEnding Story_OST\Klaus Doldinger - The NeverEnding Story - 07. Fantasia.wav

Пиковый уровень 48.6 % Качество трека 99.8 % CRC копии 242A1510 Точность не определена (достоверность 1) [A8D05E0B], AccurateRip вернул [A5CC5F80] Копирование... OK

Трек 8

Имя файла E:\torrent\The_NeverEnding_Story_OST\The NeverEnding Story_OST\Klaus Doldinger - The NeverEnding Story - 08. Atreju's Quest.wav

Пиковый уровень 94.5 % Качество трека 100.0 % CRC копии EF87BC40 Точность не определена (достоверность 1) [86F38B17], AccurateRip вернул [61588011] Копирование... OK

Трек 9

Имя файла E:\torrent\The_NeverEnding_Story_OST\The NeverEnding Story_OST\Klaus Doldinger - The NeverEnding Story - 09. Theme Of Sadness.wav

Пиковый уровень 66.5 % Качество трека 100.0 % CRC копии A2259DBF Точность не определена (достоверность 1) [3BB201C8], AccurateRip вернул [0B5613FD] Копирование... OK

Трек 10

Имя файла E:\torrent\The_NeverEnding_Story_OST\The NeverEnding Story_OST\Klaus Doldinger - The NeverEnding Story - 10. Atreju Meets Falkor.wav

Длина предзазора 0:00:01.13

Пиковый уровень 85.8 % Качество трека 100.0 % CRC копии 8BB6E08C Точность не определена (достоверность 1) [B60D15C3], AccurateRip вернул [1D68F39E] Копирование... OK

Трек 11

Имя файла E:\torrent\The_NeverEnding_Story_OST\The NeverEnding Story_OST\Klaus Doldinger - The NeverEnding Story - 11. Mirrorgate - Southern Oracle.wav

Пиковый уровень 77.8 % Качество трека 100.0 % CRC копии 060F6F42 Точность не определена (достоверность 1) [89C48F51], AccurateRip вернул [11D2417A] Копирование... OK

Трек 12

Имя файла E:\torrent\The_NeverEnding_Story_OST\The NeverEnding Story_OST\Klaus Doldinger - The NeverEnding Story - 12. Gmork.wav

Пиковый уровень 86.5 % Качество трека 100.0 % CRC копии A944B1CC Точность не определена (достоверность 1) [31FEB184], AccurateRip вернул [03BCE4F8] Копирование... OK

Трек 13

Имя файла E:\torrent\The_NeverEnding_Story_OST\The NeverEnding Story_OST\Klaus Doldinger - The NeverEnding Story - 13. Moonchild.wav

Пиковый уровень 85.5 % Качество трека 100.0 % CRC копии EDF92491 Точность не определена (достоверность 1) [1F926869], AccurateRip вернул [52D38FB2] Копирование... OK

Трек 14

Имя файла E:\torrent\The_NeverEnding_Story_OST\The NeverEnding Story_OST\Klaus Doldinger - The NeverEnding Story - 14. The Auryn.wav

Длина предзазора 0:00:01.32

Пиковый уровень 37.9 % Качество трека 100.0 % CRC копии C1F34514 Точность не определена (достоверность 1) [DCBBD416], AccurateRip вернул [94861190] Копирование... OK

Трек 15

Имя файла E:\torrent\The_NeverEnding_Story_OST\The NeverEnding Story_OST\Klaus Doldinger - The NeverEnding Story - 15. Happy Flight.wav

Пиковый уровень 100.0 % Качество трека 100.0 % CRC копии B0B670F2 Точность не определена (достоверность 1) [38513BC4], AccurateRip вернул [59D38841] Копирование... OK

Ни один трек не прошёл проверки на точностьВ вашей базе может быть иной вариант штамповки диска

Ошибок не произошло

Конец отчёта
 
REM GENRE SoundtrackREM DATE 1984REM DISCID BF088D0FREM COMMENT "ExactAudioCopy v0.99pb5"PERFORMER "Various"TITLE "The NeverEnding Story"FILE "Limahl - The NeverEnding Story - 01. The NeverEnding Story.wav" WAVE TRACK 01 AUDIO TITLE "The NeverEnding Story" PERFORMER "Limahl" FLAGS PRE INDEX 01 00:00:00 TRACK 02 AUDIO TITLE "Swamps Of Sadness" PERFORMER "Giorgio Moroder" FLAGS PRE INDEX 00 03:34:22FILE "Giorgio Moroder - The NeverEnding Story - 02. Swamps Of Sadness.wav" WAVE INDEX 01 00:00:00FILE "Giorgio Moroder - The NeverEnding Story - 03. Ivory Tower.wav" WAVE TRACK 03 AUDIO TITLE "Ivory Tower" PERFORMER "Giorgio Moroder" FLAGS PRE INDEX 01 00:00:00 TRACK 04 AUDIO TITLE "Ruined Landscape" PERFORMER "Giorgio Moroder" FLAGS PRE INDEX 00 03:08:55FILE "Giorgio Moroder - The NeverEnding Story - 04. Ruined Landscape.wav" WAVE INDEX 01 00:00:00FILE "Giorgio Moroder - The NeverEnding Story - 05. Sleepy Dragon.wav" WAVE TRACK 05 AUDIO TITLE "Sleepy Dragon" PERFORMER "Giorgio Moroder" FLAGS PRE INDEX 01 00:00:00 TRACK 06 AUDIO TITLE "Bastian's Happy Flight" PERFORMER "Klaus Doldinger" FLAGS PRE INDEX 00 03:56:37FILE "Klaus Doldinger - The NeverEnding Story - 06. Bastian's Happy Flight.wav" WAVE INDEX 01 00:00:00FILE "Klaus Doldinger - The NeverEnding Story - 07. Fantasia.wav" WAVE TRACK 07 AUDIO TITLE "Fantasia" PERFORMER "Klaus Doldinger" FLAGS PRE INDEX 01 00:00:00FILE "Klaus Doldinger - The NeverEnding Story - 08. Atreju's Quest.wav" WAVE TRACK 08 AUDIO TITLE "Atreju's Quest" PERFORMER "Klaus Doldinger" FLAGS PRE INDEX 01 00:00:00FILE "Klaus Doldinger - The NeverEnding Story - 09. Theme Of Sadness.wav" WAVE TRACK 09 AUDIO TITLE "Theme Of Sadness" PERFORMER "Klaus Doldinger" FLAGS PRE INDEX 01 00:00:00 TRACK 10 AUDIO TITLE "Atreju Meets Falkor" PERFORMER "Klaus Doldinger" FLAGS PRE INDEX 00 02:40:50FILE "Klaus Doldinger - The NeverEnding Story - 10. Atreju Meets Falkor.wav" WAVE INDEX 01 00:00:00FILE "Klaus Doldinger - The NeverEnding Story - 11. Mirrorgate - Southern Oracle.wav" WAVE TRACK 11 AUDIO TITLE "Mirrorgate - Southern Oracle" PERFORMER "Klaus Doldinger" FLAGS PRE INDEX 01 00:00:00FILE "Klaus Doldinger - The NeverEnding Story - 12. Gmork.wav" WAVE TRACK 12 AUDIO TITLE "Gmork" PERFORMER "Klaus Doldinger" FLAGS PRE INDEX 01 00:00:00FILE "Klaus Doldinger - The NeverEnding Story - 13. Moonchild.wav" WAVE TRACK 13 AUDIO TITLE "Moonchild" PERFORMER "Klaus Doldinger" FLAGS PRE INDEX 01 00:00:00 TRACK 14 AUDIO TITLE "The Auryn" PERFORMER "Klaus Doldinger" FLAGS PRE INDEX 00 01:21:05FILE "Klaus Doldinger - The NeverEnding Story - 14. The Auryn.wav" WAVE INDEX 01 00:00:00FILE "Klaus Doldinger - The NeverEnding Story - 15. Happy Flight.wav" WAVE TRACK 15 AUDIO TITLE "Happy Flight" PERFORMER "Klaus Doldinger" FLAGS PRE INDEX 01 00:00:00


Трекер:  [ 07-Июл-2011 23:20 ]

  

Скачать .torrent

Размер .torrent файла 20 KB


Размер: 222 MB
Хэш (hash) релиза: 63b35f3556326c9a02f06db5a0ff71a144bfc695

Торренты, похожие на Бесконечная история The Neverending Story скачать торрент

Форум Название Автор Размер S L Добавлен
Саундтреки ·· (Score) Бесконечная история / The Neverending Story (by Klaus Doldinger & Giorgio Moroder) - 1991 (1984), FLAC (tracks+.cue), lossless Galfimbul 235429826225 MB 0 0 1334653260

12:01

17-Апр-12

Саундтреки к фильмам и мультфильмам (mp3) ·· (Score) The NeverEnding Story / Бесконечная история (Klaus Doldinger & Giorgio Moroder) - 1996, MP3, 320 kbps Galfimbul 8774338184 MB 0 0 1292265734

21:42

13-Дек-10

Еще никто не оставлял запись к записи скачать торрент Бесконечная история The Neverending Story . Будь первым!

!Обратная связь