Скачать через торрент музыку VA - Mamma Mia! The Movie Soundtrack - 2008, FLAC бесплатно без регистрации torrent

Если у вас наблюдаются проблемы со скриншотами, переходом по ссылками, скачиванием торрентов - проблемы в блокировщике рекламы AdBlock. #хорошегоДня!


Статистика раздачи
Размер:  477 MB   |    Зарегистрирован:  6 лет 2 месяца   |    .torrent скачан:  43 раза   |   
Раздают:  1  
   
Загрузка...
 
Автор Сообщение

Galfimbul

avatar Galfimbul


Mamma Mia! The Movie Soundtrack

Жанр: Pop
Год выпуска диска: 2008
Производитель диска: EU
Аудио кодек: FLAC
Тип рипа: image+.cue
Битрейт аудио: lossless
Продолжительность: 69.57
Трэклист:
01 - Amanda Seyfried, Ashley Lilley & Rachel McDowall - Honey, Honey
02 - Meryl Streep, Julie Walters & Christine Baranski - Money, Money, Money
03 - Meryl Streep - Mamma Mia
04 - Meryl Streep, Julie Walters & Christine Baranski - Dancing Queen
05 - Colin Firth, Pierce Brosnan, Stellan Skarsgard, Amanda Seyfried & Meryl Streep - Our Last Summer
06 - Dominic Cooper & Amanda Seyfried - Lay All Your Love On Me
07 - Meryl Streep, Julie Walters & Christine Baranski - Super Trouper
08 - Amanda Seyfried, Ashley Lilley & Rachel McDowall - Gimme! Gimme! Gimme! (A Man After Midnight)
09 - Amanda Seyfried - The Name Of The Game
10 - Full Cast, Philip Michael, Christine Baranski, Julie Walters & Stellan Skarsgard - Voulez-Vous
11 - Pierce Brosnan & Meryl Streep - S.O.S.
12 - Christine Baranski & Philip Michael - Does Your Mother Know
13 - Meryl Streep & Amanda Seyfried - Slipping Through My Fingers
14 - Meryl Streep - The Winner Takes It All
15 - Pierce Brosnan & Meryl Streep - When All Is Said And Done
16 - Julie Walters, Stellan Skarsgard, Colin Firth, Philip Michael & Christine Bar... - Take A Chance On Me
17 - Amanda Seyfried - I Have A Dream
Exact Audio Copy V0.99 prebeta 3 from 28. July 2007

Отчёт EAC об извлечении, выполненном 15. декабря 2008, 10:40

Various Artists / Mamma Mia! (OST)

Дисковод: HL-DT-STDVD-RW GWA-4082N Adapter: 0 ID: 0

Режим чтения : Достоверность
Использование точного потока : Да
Отключение кэша аудио : Да
Использование указателей C2 : Нет

Коррекция смещения при чтении : 667
Способность читать области Lead-in и Lead-out : Нет
Заполнение пропущенных сэмплов тишиной : Да
Удаление блоков с тишиной в начале и конце : Нет
При вычислениях CRC использовались нулевые сэмплы : Да
Интерфейс : Встроенный Win32-интерфейс для Win NT/2000

Выходной формат : Пользовательский кодировщик
Выбранный битрейт : 768 kBit/s
Качество : Высокий
Добавление ID3-тэга : Нет
Утилита сжатия : C:\Program Files\Exact Audio Copy\FLAC\FLAC.EXE
Дополнительные параметры : -6 -V -T "ARTIST=%a" -T "TITLE=%t" -T "ALBUM=%g" -T "DATE=%y" -T "TRACKNUMBER=%n" -T "GENRE=%m" -T "COMMENT=%e" %s -o %d

TOC извлечённого CD

Трек | Старт | Длительность | Начальный сектор | Конечный сектор
---------------------------------------------------------------------
1 | 0:00.00 | 3:07.27 | 0 | 14051
2 | 3:07.27 | 3:06.34 | 14052 | 28035
3 | 6:13.61 | 3:34.68 | 28036 | 44153
4 | 9:48.54 | 4:08.04 | 44154 | 62757
5 | 13:56.58 | 2:58.53 | 62758 | 76160
6 | 16:55.36 | 4:29.33 | 76161 | 96368
7 | 21:24.69 | 3:54.30 | 96369 | 113948
8 | 25:19.24 | 3:53.02 | 113949 | 131425
9 | 29:12.26 | 4:55.34 | 131426 | 153584
10 | 34:07.60 | 4:35.10 | 153585 | 174219
11 | 38:42.70 | 3:21.03 | 174220 | 189297
12 | 42:03.73 | 3:05.07 | 189298 | 203179
13 | 45:09.05 | 3:50.67 | 203180 | 220496
14 | 48:59.72 | 4:59.08 | 220497 | 242929
15 | 53:59.05 | 3:18.03 | 242930 | 257782
16 | 57:17.08 | 4:02.46 | 257783 | 275978
17 | 61:19.54 | 8:37.44 | 275979 | 314797

Характеристики диапазона извлечения и сообщения об ошибках

Выбранный диапазон

Имя файла C:\Documents and Settings\полярис\Мои документы\Downloads\Various Artists - Mamma Mia! (OST).wav

Пиковый уровень 100.0 %
Качество диапазона 99.9 %
CRC копии 0439E749
Копирование... OK

Ошибок не произошло

Конец отчёта


Трекер:  [ 07-Июл-2011 22:57 ]

  

Скачать .torrent

Размер .torrent файла 19 KB


Размер: 477 MB
Хэш (hash) релиза: 983abdd1ac3c70030e7bbedb2309cc9c4e59c42c

Еще никто не оставлял запись к записи скачать торрент VA - Mamma Mia! The Movie Soundtrack - 2008, FLAC . Будь первым!

!Обратная связь