Скачать через торрент музыку Classic Disney - 60 Years Of Musical Magic бесплатно без регистрации torrent

Если у вас наблюдаются проблемы со скриншотами, переходом по ссылками, скачиванием торрентов - проблемы в блокировщике рекламы AdBlock. #хорошегоДня!


Статистика раздачи
Размер:  1.59 GB   |    Зарегистрирован:  6 лет 5 месяцев   |    .torrent скачан:  57 раз   |   
Раздают:  1  
   
Загрузка...
 
Автор Сообщение

Galfimbul

avatar Galfimbul


Classic Disney - 60 Years Of Musical Magic

Жанр: Score
Год выпуска диска: 2003
Страна-производитель диска: Германия

Аудио кодек: APE (*.ape)
Тип рипа: image+.cue
Битрейт аудио: lossless
Общее время звучания: 05:47:36

Источник: скачано с monova.org
Наличие сканов в содержимом раздачи: да
Треклист:

01. Whole New World [Aladdin] - Brad Kane
02. Circle Of Life [the Lion King] - Lebo M.
03. Beauty And The Beast [Beauty And The Beast] - Angela Lansbury
04. Under The Sea [The Little Mermaid] - Samuel E. Wright
05. Hakuna Matata [The Lion King] - Nathan Lane
06. Kiss The Girls [The Little Mermaid] - Samuel E. Wright
07. I Just Can't Wait To Be King [The Lion King] - Rowan Atkinson
08. Poor Unfortunate Souls [The Little Mermaid] - Pat Carroll
09. Chim Chim Cheree [Mary Poppins] - Julie Andrews
10. Jolly Holiday [Mary Poppins] - Julie Andrews
11. Spoonful Of Sugar [Mary Poppins] - Julie Andrews
12. Let's Get Together [The Parent Trap] - Hayley Mills
13. Monkey's Uncle [The Monkey's Uncle] - The Beach Boys
14. Ugly Bug Ball [Summer Magic] - Burl Ives
15. Spectrum Song [Walt Disney's Wonderful World Of Color] - Paul Frees
16. Colonel Hathi's March [The Jungle Book] - J. Pat OMalley
17. Whale Of A Tale [20, 000 Leagues Under The Sea] - Kirk Douglas
18. You Can Fly! You Can Fly! You Can Fly! [Peter Pan] - Kathryn Beaumont
19. Work Song [Cinderella] - Mouse Chorus
20. A Dream Is A Wish Your Heart Makes [Cinderella] - Ilene Woods
21. Zip-A-Dee-Doo-Dah [Song Of The South] - James Baskett
22. Dance Of The Reed Flutes [Fantasia] - Disney Orchestra
23. Love Is A Song [Bambi] - Donald Novis
24. Someday My Prince Will Come [Snow White] - Adriana Caselotti
25. Minnie's Yoo Hoo! [Mickey Mouse Theme Song] - Original Cast

Время звучания 71:13
Треклист:

01. Be Our Guest [Beauty And The Beast] - Angela Lansbury
02. Can You Feel The Love Tonight? [The Lion King] - Sally Dworsky
03. Part Of Your World [The Little Mermaid] - Jodi Benson
04. One Jump Ahead [Aladdin] - Brad Kane
05. Gaston [Beauty And The Beast] - Jesse Corti
06. Something There [Beauty And The Beast] - Robby Benson
07. Supercalifragilisticexpialidocious [Mary Poppins] - Julie Andrews
08. Candle On The Water [Pete's Dragon] - Helen Reddy
09. Main Street Electrical Parade [Disneyland][Medley] - Disneyland Chorus
10. Age Of Not Believing [Bedknobs And Broomsticks] - Angela Lansbury
11. Bare Necessities [The Jungle Book] - Phil Harris
12. Feed The Birds [Mary Poppins] - Julie Andrews
13. Best Of Friends [The Fox and The Hound] - Pearl Bailey
14. Let's Go Fly A Kite [Mary Poppins] - Dave Tomlinson
15. It's A Small World [New York World's Fair] - Disneyland Chorus
16. Tiki, Tiki, Tiki Room [Disneyland] - Wally Boag
17. Mickey Mouse March [The Mickey Mouse Club] - Mouseketeers
18. On The Front Porch [Summer Magic] - Burl Ives
19. Second Star To The Right [Peter Pan] - Jud Conlon
20. Ev'rybody Has A Laughing Place [Song of the South] - James Baskett
21. Bibbidi-Bobbidi-Boo [Cinderella] - Verna Felton
22. So This Is Love [Cinderella] - Mike Douglas
23. When You Wish Upon A Star [Pinocchio] - Cliff 'Ukelele Ike' Edwards
24. Heigh-Ho [Snow White] - Dwarf Chorus
25. Who's Afraid Of The Big Bad Wolf? [Three Little Pigs] - Billy Bletcher

Время звучания 71:51
Треклист

01. Colors Of The Wind [Pocahontas] - Judy Kuhn
02. You've Got A Friend In Me [Toy Story] - Randy Newman
03. Be Prepared [The Lion King] - Jeremy Irons, Whoopi Goldberg, Cheech Marin & Jim Cummings
04. Out There [The Hunchback Of Notre Dame] - Tony Jay & Tom Hulce
05. Family [James And The Giant Peach] - Original Cast
06. Les Poissons [The Little Mermaid] - Rene Auberjonois
07. Mine, Mine, Mine [Pocahontas] - David Ogden Stiers & Mel Gibson
08. Jack's Lament [The Nightmare Before Christmas] - Danny Elfman
09. My Name Is James [James And The Giant Peach] - Paul Terry & Drew Harrah
10. Heffalumps And Woozles [Winnie The Pooh And The Blustery Day] - Disney Chorus
11. The Mob Song [Beauty And The Beast] - Original Cast
12. Portobello Road [Bedknobs And Broomsticks] - David Tomlinson & Angela Lansbury
13. Stay Awake [Mary Poppins] - Julie Andrews
14. I Wan'na Be Like You [The Jungle Book] - Louis Prima
15. Oo-De-Lally [Robin Hood] - Roger Miller
16. Are We Dancing [The Happiest Millionaire] - John Davidson & Leslie Ann Warren
17. Once Upon A Dream [Sleeping Beauty] - Mary Costa & Bill Shirley
18. Bella Notte [Lady And The Tramp] - George Givot & Bill Thompson
19. Following The Leader [Peter Pan] - Bobby Driscoll & Paul Collins
20. Trust In Me [The Jungle Book] - Sterling Holloway
21. The Ballad Of Davy Crockett [Davy Crockett] - The Wellingtons
22. I'm Professor Ludwig Von Drake [Walt Disney's The Wonderful World Of Color] - Paul Frees
23. Pink Elephants On Parade [Dumbo] - Disney Chorus
24. Little April Shower [Bambi] - Disney Chorus
25. The Silly Song [Dwarfs' Yodel Song] [Snow White] - Larry Morey, Dwarf Chorus, & Adriana Caselotti

Время звучания 72:12
Треклист:

01. One Last Hope [Hercules] - Danny DeVito
02. A Guy Like You [The Hunchback Of Notre Dame] - Original Cast
03. On The Open Road [A Goofy Movie] - Bill Farmer & Aaron Lohr
04. Just Around The Riverbend [Pocahontas] - Judy Kuhn
05. Home [Beauty And The Beast Broadway Musical] - Susan Egan
06. Fantasmic! [Disneyland] - Bruce Healey
07. Oogie Boogie's Song [The Nightmare BeforeChristmas] - Ken Page & Ed Ivory
08. I Will Go Sailing No More [Toy Story] - Randy Newman
09. Substitutiary Locomotion [Bedknobs And Broomsticks] - Original Cast
10. Stop, Look, And Listen [I'm No Fool] [The Mickey Mouse Club] - Cliff Edwards
11. Love [Robin Hood] - Nancy Adams
12. Thomas O'Malley Cat [The Aristocats] - Phil Harris
13. That's What Friends Are For [The Jungle Book] - Original Cast
14. Winnie The Pooh [Winnie The Pooh & The Honey Tree] - The Disney Chorus
15. Femininity [Summer Magic] - Hayley Mills, Deborah Walley & Wendy Turner
16. Ten Feet Off The Ground [The One & Only, Genuine, Original Family Band] - Oiginal Cast
17. The Siamese Cat Song [Lady And The Tramp] - Peggy Lee
18. Enjoy It! [In Search Of The Castaways] - Hayley Mills & Maurice Chevalier
19. Although I Dropped $100,000 [Walt Disney's The Wonderful World Of Color] - Paul Frees
20. Give A Little Whistle [Pinocchio] - Cliff Edwards & Dickie Jones
21. Oh, Sing Sweet Nightingale [Cinderella] - Ilene Woods & Rhoda Williams
22. I Wonder [Sleeping Beauty] - Mary Costa
23. Looking For Romance [Bambi] - Donald Novis & The Disney Chorus
24. Baby Mine [Dumbo] - Betty Noyes
25. I'm Wishing One Song [Snow White] - Adriana Caselotti & Harry Stockwell

Время звучания 63:07
Треклист:

01. I'll Make A Man Out Of You [Mulan] - Donny Osmond
02. I Won't Say I'm In Love [Hercules] - Susan Egan
03. God Help The Outcasts [The Hunchback Of Notre Dame] - Heidi Mollenhauer
04. If I Can't Love Her [Beauty And The Beast Broadway Musical] - Terry Mann
05. Steady As The Beating Drum [Pocahontas] - Disney Chorus
06. Belle [Beauty And The Beast] - Paige O'Hara
07. Strange Things [Toy Story] - Randy Newman
08. Cruella de Ville [101 Dalmatians] - Dr. John
09. Eating The Peach [James And The Giant Peach] - Paul Terry
10. Seize The Day [Newsies] - David Moscow
11. What's This? [The Nightmare Before Christmas] - Danny Elfman
12. Lavender Blue [So Dear To My Heart] - Burl Ives
13. Rain Rain Rain Came Down Down Down [Winnie The Pooh] - Disney Chorus
14. Step In The Right Direction [Bedknobs And Broomsticks] - Angela Lansbury
15. Boo Bop Bopbop Bop [I Love You, Too] [Pete's Dragon] - Charlie Callas
16. Yo Ho [A Pirate's Life For Me] [The Pirates Of The Caribbean] - Disney Chorus
17. My Own Home [The Jungle Book] - Darleen Carr
18. Ev'rybody Wants To Be A Cat [The Aristocats] - Scatman Crothers
19. In A World Of My Own [Alice In Wonderland] - Kathryn Beaumont
20. You Belong To My Heart [The Three Caballeros] - Dora Luz
21. Humphrey Hop [In The Bag] - Disney Chorus
22. He's A Tramp [Lady And The Tramp] - Peggy Lee
23. Song Of The South [Song Of The South] - Disney Chorus
24. When I See An Elephant Fly [Dumbo] - Jim Carmichael
25. I've Got No Strings [Pinocchio] - Dick Jones

Время звучания 69:13
 
Exact Audio Copy V0.99 prebeta 4 from 23. January 2008

EAC extraction logfile from 25. February 2010, 19:23

Various Artists / Classic Disney Vol.1 (60 Years of Musical Magic)

Used drive : ATAPI DVD A DH20A4P Adapter: 3 ID: 0

Read mode : SecureUtilize accurate stream : YesDefeat audio cache : YesMake use of C2 pointers : No

Read offset correction : 6Overread into Lead-In and Lead-Out : NoFill up missing offset samples with silence : YesDelete leading and trailing silent blocks : NoNull samples used in CRC calculations : Yes

Used interface : Installed external ASPI interface

Used output format : Monkey's Audio Lossless EncoderSelected bitrate : High Lossless CompressionQuality : HighAdd ID3 tag : YesCommand line compressor : C:\Program Files\Monkey's Audio\MAC.exe

TOC of the extracted CD

Track | Start | Length | Start sector | End sector --------------------------------------------------------- 1 | 0:00.00 | 2:39.07 | 0 | 11931 2 | 2:39.07 | 3:56.52 | 11932 | 29683 3 | 6:35.59 | 2:43.30 | 29684 | 41938 4 | 9:19.14 | 3:12.60 | 41939 | 56398 5 | 12:31.74 | 3:31.12 | 56399 | 72235 6 | 16:03.11 | 2:40.28 | 72236 | 84263 7 | 18:43.39 | 2:49.38 | 84264 | 96976 8 | 21:33.02 | 4:48.65 | 96977 | 118641 9 | 26:21.67 | 2:45.05 | 118642 | 131021 10 | 29:06.72 | 4:57.02 | 131022 | 153298 11 | 34:03.74 | 4:07.30 | 153299 | 171853 12 | 38:11.29 | 1:28.60 | 171854 | 178513 13 | 39:40.14 | 2:33.30 | 178514 | 190018 14 | 42:13.44 | 2:56.30 | 190019 | 203248 15 | 45:09.74 | 1:36.70 | 203249 | 210518 16 | 46:46.69 | 2:28.55 | 210519 | 221673 17 | 49:15.49 | 2:07.50 | 221674 | 231248 18 | 51:23.24 | 4:02.62 | 231249 | 249460 19 | 55:26.11 | 2:02.47 | 249461 | 258657 20 | 57:28.58 | 3:43.20 | 258658 | 275402 21 | 61:12.03 | 2:16.00 | 275403 | 285602 22 | 63:28.03 | 1:46.02 | 285603 | 293554 23 | 65:14.05 | 2:06.60 | 293555 | 303064 24 | 67:20.65 | 1:52.00 | 303065 | 311464 25 | 69:12.65 | 2:00.40 | 311465 | 320504

Range status and errors

Filename D:\Share\Various Artists - Classic Disney Vol.1 (60 Years of Musical Magic).wav

Peak level 96,7 % Range quality 99.9 % Test CRC 36E88FCD Copy CRC 36E88FCD Copy OK

No errors occurred

AccurateRip summary

Track 1 not present in databaseTrack 2 not present in databaseTrack 3 not present in databaseTrack 4 not present in databaseTrack 5 not present in databaseTrack 6 not present in databaseTrack 7 not present in databaseTrack 8 not present in databaseTrack 9 not present in databaseTrack 10 not present in databaseTrack 11 not present in databaseTrack 12 not present in databaseTrack 13 not present in databaseTrack 14 not present in databaseTrack 15 not present in databaseTrack 16 not present in databaseTrack 17 not present in databaseTrack 18 not present in databaseTrack 19 not present in databaseTrack 20 not present in databaseTrack 21 not present in databaseTrack 22 not present in databaseTrack 23 not present in databaseTrack 24 not present in databaseTrack 25 not present in database

None of the tracks are present in the AccurateRip database

End of status report
 
Exact Audio Copy V0.99 prebeta 4 from 23. January 2008

EAC extraction logfile from 25. February 2010, 20:11

Various Artists / Classic Disney Vol.2 (60 Years of Musical Magic)

Used drive : ATAPI DVD A DH20A4P Adapter: 3 ID: 0

Read mode : SecureUtilize accurate stream : YesDefeat audio cache : YesMake use of C2 pointers : No

Read offset correction : 6Overread into Lead-In and Lead-Out : NoFill up missing offset samples with silence : YesDelete leading and trailing silent blocks : NoNull samples used in CRC calculations : Yes

Used interface : Installed external ASPI interface

Used output format : Monkey's Audio Lossless EncoderSelected bitrate : High Lossless CompressionQuality : HighAdd ID3 tag : YesCommand line compressor : C:\Program Files\Monkey's Audio\MAC.exe

TOC of the extracted CD

Track | Start | Length | Start sector | End sector --------------------------------------------------------- 1 | 0:00.00 | 3:42.55 | 0 | 16704 2 | 3:42.55 | 2:56.50 | 16705 | 29954 3 | 6:39.30 | 3:11.67 | 29955 | 44346 4 | 9:51.22 | 2:22.15 | 44347 | 55011 5 | 12:13.37 | 3:37.20 | 55012 | 71306 6 | 15:50.57 | 2:15.62 | 71307 | 81493 7 | 18:06.44 | 2:00.15 | 81494 | 90508 8 | 20:06.59 | 2:57.70 | 90509 | 103853 9 | 23:04.54 | 5:10.17 | 103854 | 127120 10 | 28:14.71 | 3:14.58 | 127121 | 141728 11 | 31:29.54 | 4:48.50 | 141729 | 163378 12 | 36:18.29 | 3:48.40 | 163379 | 180518 13 | 40:06.69 | 2:13.70 | 180519 | 190563 14 | 42:20.64 | 1:48.22 | 190564 | 198685 15 | 44:09.11 | 2:38.53 | 198686 | 210588 16 | 46:47.64 | 2:37.57 | 210589 | 222420 17 | 49:25.46 | 2:39.30 | 222421 | 234375 18 | 52:05.01 | 3:22.22 | 234376 | 249547 19 | 55:27.23 | 1:48.00 | 249548 | 257647 20 | 57:15.23 | 0:48.07 | 257648 | 261254 21 | 58:03.30 | 3:36.08 | 261255 | 277462 22 | 61:39.38 | 1:30.02 | 277463 | 284214 23 | 63:09.40 | 3:12.62 | 284215 | 298676 24 | 66:22.27 | 2:45.53 | 298677 | 311104 25 | 69:08.05 | 2:42.62 | 311105 | 323316

Range status and errors

Filename D:\Share\Various Artists - Classic Disney Vol.2 (60 Years of Musical Magic).wav

Peak level 96,8 % Range quality 100.0 % Test CRC 6FE180D0 Copy CRC 6FE180D0 Copy OK

No errors occurred

AccurateRip summary

Track 1 not present in databaseTrack 2 not present in databaseTrack 3 not present in databaseTrack 4 not present in databaseTrack 5 not present in databaseTrack 6 not present in databaseTrack 7 not present in databaseTrack 8 not present in databaseTrack 9 not present in databaseTrack 10 not present in databaseTrack 11 not present in databaseTrack 12 not present in databaseTrack 13 not present in databaseTrack 14 not present in databaseTrack 15 not present in databaseTrack 16 not present in databaseTrack 17 not present in databaseTrack 18 not present in databaseTrack 19 not present in databaseTrack 20 not present in databaseTrack 21 not present in databaseTrack 22 not present in databaseTrack 23 not present in databaseTrack 24 not present in databaseTrack 25 not present in database

None of the tracks are present in the AccurateRip database

End of status report
 
Exact Audio Copy V0.99 prebeta 4 from 23. January 2008

EAC extraction logfile from 27. February 2010, 1:33

Various Artists / Classic Disney Vol.3 (60 Years of Musical Magic)

Used drive : ATAPI DVD A DH20A4P Adapter: 3 ID: 0

Read mode : SecureUtilize accurate stream : YesDefeat audio cache : YesMake use of C2 pointers : No

Read offset correction : 6Overread into Lead-In and Lead-Out : NoFill up missing offset samples with silence : YesDelete leading and trailing silent blocks : NoNull samples used in CRC calculations : Yes

Used interface : Installed external ASPI interface

Used output format : Monkey's Audio Lossless EncoderSelected bitrate : High Lossless CompressionQuality : HighAdd ID3 tag : YesCommand line compressor : C:\Program Files\Monkey's Audio\MAC.exe

TOC of the extracted CD

Track | Start | Length | Start sector | End sector --------------------------------------------------------- 1 | 0:00.00 | 3:32.42 | 0 | 15941 2 | 3:32.42 | 2:02.40 | 15942 | 25131 3 | 5:35.07 | 3:37.35 | 25132 | 41441 4 | 9:12.42 | 4:23.15 | 41442 | 61181 5 | 13:35.57 | 2:40.50 | 61182 | 73231 6 | 16:16.32 | 1:32.30 | 73232 | 80161 7 | 17:48.62 | 3:04.22 | 80162 | 93983 8 | 20:53.09 | 3:14.05 | 93984 | 108538 9 | 24:07.14 | 2:34.62 | 108539 | 120150 10 | 26:42.01 | 2:01.72 | 120151 | 129297 11 | 28:43.73 | 3:26.70 | 129298 | 144817 12 | 32:10.68 | 3:24.30 | 144818 | 160147 13 | 35:35.23 | 1:42.55 | 160148 | 167852 14 | 37:18.03 | 4:00.70 | 167853 | 185922 15 | 41:18.73 | 0:58.28 | 185923 | 190300 16 | 42:17.26 | 3:24.23 | 190301 | 205623 17 | 45:41.49 | 2:44.52 | 205624 | 217975 18 | 48:26.26 | 2:34.28 | 217976 | 229553 19 | 51:00.54 | 1:34.15 | 229554 | 236618 20 | 52:34.69 | 2:48.05 | 236619 | 249223 21 | 55:22.74 | 1:40.42 | 249224 | 256765 22 | 57:03.41 | 2:11.60 | 256766 | 266650 23 | 59:15.26 | 4:27.38 | 266651 | 286713 24 | 63:42.64 | 3:53.27 | 286714 | 304215 25 | 67:36.16 | 4:35.07 | 304216 | 324847

Range status and errors

Filename D:\Share\Various Artists - Classic Disney Vol.3 (60 Years of Musical Magic).wav

Peak level 97.0 % Range quality 100.0 % Test CRC D816469F Copy CRC D816469F Copy OK

No errors occurred

AccurateRip summary

Track 1 not present in databaseTrack 2 not present in databaseTrack 3 not present in databaseTrack 4 not present in databaseTrack 5 not present in databaseTrack 6 not present in databaseTrack 7 not present in databaseTrack 8 not present in databaseTrack 9 not present in databaseTrack 10 not present in databaseTrack 11 not present in databaseTrack 12 not present in databaseTrack 13 not present in databaseTrack 14 not present in databaseTrack 15 not present in databaseTrack 16 not present in databaseTrack 17 not present in databaseTrack 18 not present in databaseTrack 19 not present in databaseTrack 20 not present in databaseTrack 21 not present in databaseTrack 22 not present in databaseTrack 23 not present in databaseTrack 24 not present in databaseTrack 25 not present in database

None of the tracks are present in the AccurateRip database

End of status report
 
Exact Audio Copy V0.99 prebeta 4 from 23. January 2008

EAC extraction logfile from 25. February 2010, 21:50

Various Artists / Classic Disney Vol.4 (60 Years of Musical Magic)

Used drive : ATAPI DVD A DH20A4P Adapter: 3 ID: 0

Read mode : SecureUtilize accurate stream : YesDefeat audio cache : YesMake use of C2 pointers : No

Read offset correction : 6Overread into Lead-In and Lead-Out : NoFill up missing offset samples with silence : YesDelete leading and trailing silent blocks : NoNull samples used in CRC calculations : Yes

Used interface : Installed external ASPI interface

Used output format : Monkey's Audio Lossless EncoderSelected bitrate : High Lossless CompressionQuality : HighAdd ID3 tag : YesCommand line compressor : C:\Program Files\Monkey's Audio\MAC.exe

TOC of the extracted CD

Track | Start | Length | Start sector | End sector --------------------------------------------------------- 1 | 0:00.00 | 3:02.18 | 0 | 13667 2 | 3:02.18 | 2:54.32 | 13668 | 26749 3 | 5:56.50 | 3:03.43 | 26750 | 40517 4 | 9:00.18 | 2:30.22 | 40518 | 51789 5 | 11:30.40 | 3:50.20 | 51790 | 69059 6 | 15:20.60 | 3:00.30 | 69060 | 82589 7 | 18:21.15 | 3:18.50 | 82590 | 97489 8 | 21:39.65 | 2:57.50 | 97490 | 110814 9 | 24:37.40 | 1:44.30 | 110815 | 118644 10 | 26:21.70 | 3:00.25 | 118645 | 132169 11 | 29:22.20 | 1:51.08 | 132170 | 140502 12 | 31:13.28 | 2:35.62 | 140503 | 152189 13 | 33:49.15 | 2:06.25 | 152190 | 161664 14 | 35:55.40 | 2:25.18 | 161665 | 172557 15 | 38:20.58 | 2:00.62 | 172558 | 181619 16 | 40:21.45 | 4:03.23 | 181620 | 199867 17 | 44:24.68 | 2:13.20 | 199868 | 209862 18 | 46:38.13 | 2:09.32 | 209863 | 219569 19 | 48:47.45 | 1:48.33 | 219570 | 227702 20 | 50:36.03 | 1:37.65 | 227703 | 235042 21 | 52:13.68 | 2:09.40 | 235043 | 244757 22 | 54:23.33 | 1:19.30 | 244758 | 250712 23 | 55:42.63 | 2:09.70 | 250713 | 260457 24 | 57:52.58 | 2:08.07 | 260458 | 270064 25 | 60:00.65 | 3:06.65 | 270065 | 284079

Range status and errors

Filename D:\Share\Various Artists - Classic Disney Vol.4 (60 Years of Musical Magic).wav

Peak level 90,1 % Range quality 99.9 % Test CRC D156D78B Copy CRC D156D78B Copy OK

No errors occurred

AccurateRip summary

Track 1 not present in databaseTrack 2 not present in databaseTrack 3 not present in databaseTrack 4 not present in databaseTrack 5 not present in databaseTrack 6 not present in databaseTrack 7 not present in databaseTrack 8 not present in databaseTrack 9 not present in databaseTrack 10 not present in databaseTrack 11 not present in databaseTrack 12 not present in databaseTrack 13 not present in databaseTrack 14 not present in databaseTrack 15 not present in databaseTrack 16 not present in databaseTrack 17 not present in databaseTrack 18 not present in databaseTrack 19 not present in databaseTrack 20 not present in databaseTrack 21 not present in databaseTrack 22 not present in databaseTrack 23 not present in databaseTrack 24 not present in databaseTrack 25 not present in database

None of the tracks are present in the AccurateRip database

End of status report
 
Exact Audio Copy V0.99 prebeta 4 from 23. January 2008

EAC extraction logfile from 28. February 2010, 21:34

Various Artists / Classic Disney Vol.5 (60 Years of Musical Magic)

Used drive : ATAPI DVD A DH20A4P Adapter: 3 ID: 0

Read mode : SecureUtilize accurate stream : YesDefeat audio cache : YesMake use of C2 pointers : No

Read offset correction : 6Overread into Lead-In and Lead-Out : NoFill up missing offset samples with silence : YesDelete leading and trailing silent blocks : NoNull samples used in CRC calculations : Yes

Used interface : Installed external ASPI interface

Used output format : Monkey's Audio Lossless EncoderSelected bitrate : High Lossless CompressionQuality : HighAdd ID3 tag : YesCommand line compressor : C:\Program Files\Monkey's Audio\MAC.exe

TOC of the extracted CD

Track | Start | Length | Start sector | End sector --------------------------------------------------------- 1 | 0:00.00 | 3:22.00 | 0 | 15149 2 | 3:22.00 | 2:21.02 | 15150 | 25726 3 | 5:43.02 | 3:45.13 | 25727 | 42614 4 | 9:28.15 | 4:06.30 | 42615 | 61094 5 | 13:34.45 | 1:52.60 | 61095 | 69554 6 | 15:27.30 | 5:09.10 | 69555 | 92739 7 | 20:36.40 | 3:19.55 | 92740 | 107719 8 | 23:56.20 | 4:07.67 | 107720 | 126311 9 | 28:04.12 | 2:54.40 | 126312 | 139401 10 | 30:58.52 | 2:02.10 | 139402 | 148561 11 | 33:00.62 | 3:07.43 | 148562 | 162629 12 | 36:08.30 | 2:32.10 | 162630 | 174039 13 | 38:40.40 | 1:40.02 | 174040 | 181541 14 | 40:20.42 | 2:24.05 | 181542 | 192346 15 | 42:44.47 | 2:47.03 | 192347 | 204874 16 | 45:31.50 | 4:46.37 | 204875 | 226361 17 | 50:18.12 | 3:32.08 | 226362 | 242269 18 | 53:50.20 | 2:03.02 | 242270 | 251496 19 | 55:53.22 | 1:20.65 | 251497 | 257561 20 | 57:14.12 | 2:21.60 | 257562 | 268196 21 | 59:35.72 | 1:25.15 | 268197 | 274586 22 | 61:01.12 | 2:02.33 | 274587 | 283769 23 | 63:03.45 | 1:58.00 | 283770 | 292619 24 | 65:01.45 | 1:50.27 | 292620 | 300896 25 | 66:51.72 | 2:21.05 | 300897 | 311476

Range status and errors

Filename D:\Share\Various Artists - Classic Disney Vol.5 (60 Years of Musical Magic).wav

Peak level 100.0 % Range quality 99.9 % Test CRC 57A77C3D Copy CRC 57A77C3D Copy OK

No errors occurred

AccurateRip summary

Track 1 accurately ripped (confidence 12) [6C32D56E]Track 2 accurately ripped (confidence 12) [4D088224]Track 3 accurately ripped (confidence 12) [EED4102E]Track 4 accurately ripped (confidence 12) [0133999A]Track 5 accurately ripped (confidence 12) [CCA95DE2]Track 6 accurately ripped (confidence 12) [C568E704]Track 7 accurately ripped (confidence 12) [E47EB07B]Track 8 accurately ripped (confidence 12) [95A303AD]Track 9 accurately ripped (confidence 11) [A45D1227]Track 10 accurately ripped (confidence 11) [BF7BD3E4]Track 11 accurately ripped (confidence 11) [BD6D6CB9]Track 12 accurately ripped (confidence 12) [C7DF8F42]Track 13 accurately ripped (confidence 12) [296B0229]Track 14 accurately ripped (confidence 11) [EB6063BB]Track 15 accurately ripped (confidence 12) [94F28B92]Track 16 accurately ripped (confidence 12) [FFD2A6D7]Track 17 accurately ripped (confidence 12) [6FB4EEAD]Track 18 accurately ripped (confidence 12) [B0E833EF]Track 19 accurately ripped (confidence 13) [80EB694F]Track 20 accurately ripped (confidence 13) [F0546EA2]Track 21 accurately ripped (confidence 13) [B9E15A88]Track 22 accurately ripped (confidence 13) [19B561DE]Track 23 accurately ripped (confidence 13) [66696AC8]Track 24 accurately ripped (confidence 12) [0F29398D]Track 25 accurately ripped (confidence 13) [8803C4C7]

All tracks accurately ripped

End of status report


Трекер:  [ 07-Июл-2011 22:57 ]

  

Скачать .torrent

Размер .torrent файла 18 KB


Размер: 1.59 GB
Хэш (hash) релиза: c7c9cca10fe785df16e183c2589a72490f545c66

Торренты, похожие на Classic Disney - 60 Years Of Musical Magic скачать торрент

Форум Название Автор Размер S L Добавлен
Саундтреки к фильмам и мультфильмам (mp3) ·· (Soundtrack) VA - Classic Disney: 60 Years of Musical Magic (5 CD Box Set) - 2003, MP3 (tracks), 320 kbps Galfimbul 845470306806 MB 0 0 1292265763

21:42

13-Дек-10

Еще никто не оставлял запись к записи скачать торрент Classic Disney - 60 Years Of Musical Magic . Будь первым!

!Обратная связь