Скачать через торрент музыку Лили была здесь Lily Was Here бесплатно без регистрации torrent

Если у вас наблюдаются проблемы со скриншотами, переходом по ссылками, скачиванием торрентов - проблемы в блокировщике рекламы AdBlock. #хорошегоДня!


Статистика раздачи
Размер:  112 MB   |    Зарегистрирован:  6 лет 5 месяцев   |    .torrent скачан:  53 раза   |   
Раздают:  1  
   
Загрузка...
 
Автор Сообщение

Galfimbul

avatar Galfimbul


Лили была здесь / Lily Was Here
(CD-Maxi)

Жанр: Score / Smooth Jazz
Композитор: David A. Stewart feat. Candy Dulfer
Страна-производитель диска: Europe
Год издания диска: 1989
Издатель (лейбл): Anxious Records
Номер по каталогу: ZD 43046
Аудио кодек: FLAC (*.flac)
Тип рипа: image+.cue
Битрейт аудио: lossless
Продолжительность: 0:15:06
Источник (релизер): DENnv
Наличие сканов в содержимом раздачи: да, PNG, 600 dpi

Треклист:
1. Lily Was Here (4:19)
2. Lily Was Here (Space Centre Medical Unit Hum) (8:10)
3. Lily Robs The Bank (2:33)

Ссылка на Discogs:
www.discogs.com/release/154587
 
Exact Audio Copy V0.99 prebeta 5 from 4. May 2009

Отчёт EAC об извлечении, выполненном 9. октября 2010, 3:01

David A. Stewart feat. Candy Dulfer / Lily Was Here (CDM)

Дисковод: LITE-ON DVDRW SHM-165P6S Adapter: 0 ID: 0

Режим чтения : ДостоверностьИспользование точного потока : ДаОтключение кэша аудио : ДаИспользование указателей C2 : Нет

Коррекция смещения при чтении : 6Способность читать области Lead-in и Lead-out : НетЗаполнение пропущенных сэмплов тишиной : ДаУдаление блоков с тишиной в начале и конце : НетПри вычислениях CRC использовались нулевые сэмплы : ДаИнтерфейс : Установленный внешний ASPI-интерфейс

Выходной формат : Внутренние WAV-операцииФормат сэмплов : 44.100 Гц; 16 бит; стерео

TOC извлечённого CD

Трек | Старт | Длительность | Начальный сектор | Конечный сектор --------------------------------------------------------------------- 1 | 0:00.00 | 4:23.20 | 0 | 19744 2 | 4:23.20 | 8:08.22 | 19745 | 56366 3 | 12:31.42 | 2:34.33 | 56367 | 67949

Характеристики диапазона извлечения и сообщения об ошибках

Выбранный диапазон

Имя файла C:\Documents and Settings\Администратор\Мои документы\David A. Stewart feat. Candy Dulfer - Lily Was Here (CDM) (1989) (lossless-DENnv)\David A. Stewart feat. Candy Dulfer - Lily Was Here (CDM).wav

Пиковый уровень 100.0 % Качество диапазона 100.0 % CRC теста 133E3F01 CRC копии 133E3F01 Копирование... OK

Ошибок не произошло

AccurateRip: сводка

Трек 1 точное извлечение (доверие 12) [1479A42C]Трек 2 точное извлечение (доверие 12) [6CE2C0EB]Трек 3 точное извлечение (доверие 12) [AB4D9A9F]

Все треки извлечены точно

Конец отчёта


Трекер:  [ 07-Июл-2011 22:58 ]

  

Скачать .torrent

Размер .torrent файла 18 KB


Размер: 112 MB
Хэш (hash) релиза: 019cac0c56e21dc8caa042af37005d0f6bbc42e9

Торренты, похожие на Лили была здесь Lily Was Here скачать торрент

Форум Название Автор Размер S L Добавлен
Саундтреки к фильмам и мультфильмам (lossless) ·· (Score) Lily Was Here / Лили была здесь (David A. Stewart & Candy Dulfer) - 1989, FLAC (image+.cue), lossless AqvaGen 230239148220 MB 0 0 1292268505

22:28

13-Дек-10

Саундтреки к фильмам и мультфильмам (mp3) ·· (Score) Lily Was Here / Лили была здесь (David A. Stewart & Candy Dulfer) - 1989, MP3 (tracks), 320 kbps Galfimbul 108306432103 MB 0 0 1292265895

21:44

13-Дек-10

L

Саунд от Бога. Шедеврально просто...

Хотите добавить комментарий к записи скачать торрент Лили была здесь Lily Was Here

!Обратная связь