Скачать через торрент музыку Охотники за привидениями Ghostbusters - 1984, FLAC бесплатно без регистрации torrent

Если у вас наблюдаются проблемы со скриншотами, переходом по ссылками, скачиванием торрентов - проблемы в блокировщике рекламы AdBlock. #хорошегоДня!


Статистика раздачи
Размер:  223 MB   |    Зарегистрирован:  6 лет 6 месяцев   |    .torrent скачан:  111 раз   |   
Раздают:  1  
   
Загрузка...
 
Автор Сообщение

Mo4ilovo

avatar Mo4ilovo


Ghostbusters

Жанр: Soundtrack
Год выпуска диска: 1984
Производитель диска: USA
Аудио кодек: FLAC
Тип рипа: tracks+.cue
Битрейт аудио: lossless
Продолжительность: 37:59
Трэклист:
01. Ghostbusters (4:07)
02. Cleanin' Up The Town (3:00)
03. Savin' The Day (3:24)
04. In The Name Of Love (3:20)
05. I Can Wait Forever (5:09)
06. Hot Night (3:23)
07. Magic (4:21)
08. Main Title Theme (3:01)
09. Dana's Theme (3:32)
10. Ghostbusters (Instr. Version) (4:47)

 
Exact Audio Copy V0.99 prebeta 5 from 4. May 2009

EAC extraction logfile from 21. June 2009, 11:23

Various / Ghostbusters

Used drive : Pioneer DVD-RW DVR-K17RS Adapter: 4 ID: 0

Read mode : SecureUtilize accurate stream : YesDefeat audio cache : YesMake use of C2 pointers : No

Read offset correction : 48Overread into Lead-In and Lead-Out : NoFill up missing offset samples with silence : YesDelete leading and trailing silent blocks : NoNull samples used in CRC calculations : YesUsed interface : Installed external ASPI interfaceGap handling : Appended to previous track

Used output format : Internal WAV RoutinesSample format : 44.100 Hz; 16 Bit; Stereo

TOC of the extracted CD

Track | Start | Length | Start sector | End sector --------------------------------------------------------- 1 | 0:00.00 | 4:06.43 | 0 | 18492 2 | 4:06.43 | 2:59.47 | 18493 | 31964 3 | 7:06.15 | 3:23.65 | 31965 | 47254 4 | 10:30.05 | 3:20.30 | 47255 | 62284 5 | 13:50.35 | 5:08.43 | 62285 | 85427 6 | 18:59.03 | 3:22.62 | 85428 | 100639 7 | 22:21.65 | 4:21.28 | 100640 | 120242 8 | 26:43.18 | 3:01.02 | 120243 | 133819 9 | 29:44.20 | 3:32.20 | 133820 | 149739 10 | 33:16.40 | 4:47.18 | 149740 | 171282

Track 1

Filename D:\Music\EAC\Ghostbusters (1984, OST, FLAC) VA\01 - Ghostbusters.wav

Pre-gap length 0:00:02.00

Peak level 75.7 % Track quality 100.0 % Test CRC AFC22EF5 Copy CRC AFC22EF5 Copy OK

Track 2

Filename D:\Music\EAC\Ghostbusters (1984, OST, FLAC) VA\02 - Cleanin' Up The Town.wav

Pre-gap length 0:00:00.04

Peak level 66.7 % Track quality 99.9 % Test CRC CE3D0E76 Copy CRC CE3D0E76 Copy OK

Track 3

Filename D:\Music\EAC\Ghostbusters (1984, OST, FLAC) VA\03 - Savin' The Day.wav

Pre-gap length 0:00:01.66

Peak level 60.5 % Track quality 99.9 % Test CRC AE8D5195 Copy CRC AE8D5195 Copy OK

Track 4

Filename D:\Music\EAC\Ghostbusters (1984, OST, FLAC) VA\04 - In The Name Of Love.wav

Peak level 67.0 % Track quality 100.0 % Test CRC 6F699F82 Copy CRC 6F699F82 Copy OK

Track 5

Filename D:\Music\EAC\Ghostbusters (1984, OST, FLAC) VA\05 - I Can Wait Forever.wav

Peak level 66.8 % Track quality 100.0 % Test CRC 585D9CC1 Copy CRC 585D9CC1 Copy OK

Track 6

Filename D:\Music\EAC\Ghostbusters (1984, OST, FLAC) VA\06 - Hot Night.wav

Peak level 78.3 % Track quality 100.0 % Test CRC D0848420 Copy CRC D0848420 Copy OK

Track 7

Filename D:\Music\EAC\Ghostbusters (1984, OST, FLAC) VA\07 - Magic.wav

Peak level 62.1 % Track quality 100.0 % Test CRC 023C240C Copy CRC 023C240C Copy OK

Track 8

Filename D:\Music\EAC\Ghostbusters (1984, OST, FLAC) VA\08 - Main Title Theme.wav

Pre-gap length 0:00:00.21

Peak level 68.6 % Track quality 100.0 % Test CRC 01D4F1A0 Copy CRC 01D4F1A0 Copy OK

Track 9

Filename D:\Music\EAC\Ghostbusters (1984, OST, FLAC) VA\09 - Dana's Theme.wav

Peak level 47.6 % Track quality 100.0 % Test CRC 1162F2D1 Copy CRC 1162F2D1 Copy OK

Track 10

Filename D:\Music\EAC\Ghostbusters (1984, OST, FLAC) VA\10 - Gostbusters (Instr. Version).wav

Peak level 65.3 % Track quality 99.9 % Test CRC B86DA762 Copy CRC B86DA762 Copy OK

No errors occurred

End of status report


Трекер:  [ 05-Мар-2011 12:52 ]

  

Скачать .torrent

Размер .torrent файла 18 KB


Размер: 223 MB
Хэш (hash) релиза: 66554c5422a0f0dc1b2c081523f752e023710588

Торренты, похожие на Охотники за привидениями Ghostbusters - 1984, FLAC скачать торрент

Форум Название Автор Размер S L Добавлен
Саундтреки к фильмам и мультфильмам (lossless) ·· (Soundtrack) [LP] [16/44] Охотники за привидениями / Ghostbusters - 1984, FLAC (tracks+.cue), lossless AqvaGen 243381967232 MB 0 0 1292270474

23:01

13-Дек-10

Саундтреки к фильмам и мультфильмам (lossless) ·· (Score) Ghostbusters / Охотники за привидениями (Elmer Bernstein) - 1984, FLAC (image+.cue), lossless Galfimbul 379841793362 MB 0 0 1292268946

22:35

13-Дек-10

bot

Топик был перенесен в форум Саундтреки к фильмам и мультфильмам (lossless)

Перенес Mo4ilovo

Хотите добавить комментарий к записи скачать торрент Охотники за привидениями Ghostbusters - 1984, FLAC

!Обратная связь