Скачать через торрент музыку Full Metal Jacket Цельнометаллическая оболочка - 1987, FLAC бесплатно без регистрации torrent

Если у вас наблюдаются проблемы со скриншотами, переходом по ссылками, скачиванием торрентов - проблемы в блокировщике рекламы AdBlock. #хорошегоДня!


Статистика раздачи
Размер:  188 MB   |    Зарегистрирован:  6 лет 7 месяцев   |    .torrent скачан:  94 раза   |   
Раздают:  1  
   
Загрузка...
 
Автор Сообщение

AqvaGen


Full Metal Jacket / Цельнометаллическая оболочка

Жанр: Soundtrack
Год выпуска диска: 1987
Производитель диска: USA
Аудио кодек: FLAC
Тип рипа: tracks+.cue
Битрейт аудио: lossless
Продолжительность: 41:56
Трэклист:
01. Abigail Mead & Nigel Goulding - Full Metal Jacket [5:04]
02. Johnny Wright - Hello Vietnam [3:06]
03. The Dixie Cups - Chapel Of Love [2:49]
04. Sam The Sham & The Pharoahs - Wooly Bully [2:21]
05. Chris Kenner - I Like It Like That [1:58]
06. Nancy Sinatra - These Boots Are Made For Walking [2:42]
07. The Trashmen - Surfin' Bird [2:17]
08. The Goldman Band - The Marines' Hymn [2:07]
09. Abigail Mead - Transition [0:32]
10. Abigail Mead - Parris Island [4:29]
11. Abigail Mead - Ruins [2:12]
12. Abigail Mead - Leonard [5:58]
13. Abigail Mead - Attack [2:01]
14. Abigail Mead - Time Suspended [1:04]
15. Abigail Mead - Sniper [3:16]
Доп. информация:
Exact Audio Copy V0.99 prebeta 4 from 23. January 2008

EAC extraction logfile from 5. July 2008, 23:10

Soundtrack / Full Metal Jacket

Used drive : ATAPI DVD A DH20A4P Adapter: 3 ID: 1

Read mode : Secure
Utilize accurate stream : Yes
Defeat audio cache : Yes
Make use of C2 pointers : No

Read offset correction : 6
Overread into Lead-In and Lead-Out : No
Fill up missing offset samples with silence : Yes
Delete leading and trailing silent blocks : No
Null samples used in CRC calculations : Yes
Used interface : Native Win32 interface for Win NT & 2000
Gap handling : Appended to previous track

Used output format : User Defined Encoder
Selected bitrate : 128 kBit/s
Quality : High
Add ID3 tag : No
Command line compressor : C:\Program Files\Exact Audio Copy\Flac\flac.exe
Additional command line options : -V -8 -T "artist=%a" -T "title=%t" -T "album=%g" -T "date=%y" -T "tracknumber=%n" -T "genre=%m" %s

TOC of the extracted CD

Track | Start | Length | Start sector | End sector
---------------------------------------------------------
1 | 0:00.00 | 5:04.10 | 0 | 22809
2 | 5:04.10 | 3:06.02 | 22810 | 36761
3 | 8:10.12 | 2:48.53 | 36762 | 49414
4 | 10:58.65 | 2:21.00 | 49415 | 59989
5 | 13:19.65 | 1:58.17 | 59990 | 68856
6 | 15:18.07 | 2:41.55 | 68857 | 80986
7 | 17:59.62 | 2:17.18 | 80987 | 91279
8 | 20:17.05 | 2:06.67 | 91280 | 100796
9 | 22:23.72 | 0:32.10 | 100797 | 103206
10 | 22:56.07 | 4:28.65 | 103207 | 123371
11 | 27:24.72 | 2:12.15 | 123372 | 133286
12 | 29:37.12 | 5:57.50 | 133287 | 160111
13 | 35:34.62 | 2:01.13 | 160112 | 169199
14 | 37:36.00 | 1:04.30 | 169200 | 174029
15 | 38:40.30 | 3:15.47 | 174030 | 188701

Track 1

Filename C:\EACrips\Soundtrack - 1987 - Full Metal Jacket\01 - Abigail Mead & Nigel Goulding - Full Metal Jacket.wav

Pre-gap length 0:00:02.00

Peak level 100.0 %
Track quality 100.0 %
Test CRC 78AC4ADB
Copy CRC 78AC4ADB
Accurately ripped (confidence 12) [72BFC6A3]
Copy OK

Track 2

Filename C:\EACrips\Soundtrack - 1987 - Full Metal Jacket\02 - Johnny Wright - Hello Vietnam.wav

Pre-gap length 0:00:00.77

Peak level 62.6 %
Track quality 100.0 %
Test CRC 372CBA5C
Copy CRC 372CBA5C
Accurately ripped (confidence 12) [5BEF3F77]
Copy OK

Track 3

Filename C:\EACrips\Soundtrack - 1987 - Full Metal Jacket\03 - The Dixie Cups - Chapel Of Love.wav

Pre-gap length 0:00:00.86

Peak level 68.3 %
Track quality 100.0 %
Test CRC 026F764F
Copy CRC 026F764F
Accurately ripped (confidence 12) [98ED9C87]
Copy OK

Track 4

Filename C:\EACrips\Soundtrack - 1987 - Full Metal Jacket\04 - Sam The Sham & The Pharoahs - Wooly Bully.wav

Pre-gap length 0:00:01.80

Peak level 98.3 %
Track quality 100.0 %
Test CRC D5CCEC67
Copy CRC D5CCEC67
Accurately ripped (confidence 12) [56D33A47]
Copy OK

Track 5

Filename C:\EACrips\Soundtrack - 1987 - Full Metal Jacket\05 - Chris Kenner - I Like It Like That.wav

Pre-gap length 0:00:01.93

Peak level 77.8 %
Track quality 99.9 %
Test CRC 761EBEF6
Copy CRC 761EBEF6
Accurately ripped (confidence 12) [EAC58F9A]
Copy OK

Track 6

Filename C:\EACrips\Soundtrack - 1987 - Full Metal Jacket\06 - Nancy Sinatra - These Boots Are Made For Walking.wav

Pre-gap length 0:00:02.56

Peak level 79.7 %
Track quality 100.0 %
Test CRC 5EC7B545
Copy CRC 5EC7B545
Accurately ripped (confidence 12) [0340BE47]
Copy OK

Track 7

Filename C:\EACrips\Soundtrack - 1987 - Full Metal Jacket\07 - The Trashmen - Surfin' Bird.wav

Pre-gap length 0:00:01.42

Peak level 71.3 %
Track quality 100.0 %
Test CRC F721CDC0
Copy CRC F721CDC0
Accurately ripped (confidence 12) [74E80D0F]
Copy OK

Track 8

Filename C:\EACrips\Soundtrack - 1987 - Full Metal Jacket\08 - The Goldman Band - The Marines' Hymn.wav

Pre-gap length 0:00:01.53

Peak level 75.2 %
Track quality 100.0 %
Test CRC 3475A6D9
Copy CRC 3475A6D9
Accurately ripped (confidence 12) [359FE626]
Copy OK

Track 9

Filename C:\EACrips\Soundtrack - 1987 - Full Metal Jacket\09 - Abigail Mead - Transition.wav

Pre-gap length 0:00:03.22

Peak level 95.9 %
Track quality 100.0 %
Test CRC C0E039AB
Copy CRC C0E039AB
Accurately ripped (confidence 12) [9B76B983]
Copy OK

Track 10

Filename C:\EACrips\Soundtrack - 1987 - Full Metal Jacket\10 - Abigail Mead - Parris Island.wav

Peak level 80.5 %
Track quality 100.0 %
Test CRC A648120C
Copy CRC A648120C
Accurately ripped (confidence 12) [F9CD7B50]
Copy OK

Track 11

Filename C:\EACrips\Soundtrack - 1987 - Full Metal Jacket\11 - Abigail Mead - Ruins.wav

Pre-gap length 0:00:00.46

Peak level 35.7 %
Track quality 100.0 %
Test CRC BFA74B82
Copy CRC BFA74B82
Accurately ripped (confidence 12) [3C6D7190]
Copy OK

Track 12

Filename C:\EACrips\Soundtrack - 1987 - Full Metal Jacket\12 - Abigail Mead - Leonard.wav

Pre-gap length 0:00:02.29

Peak level 33.5 %
Track quality 100.0 %
Test CRC 3966D565
Copy CRC 3966D565
Accurately ripped (confidence 12) [1668E48E]
Copy OK

Track 13

Filename C:\EACrips\Soundtrack - 1987 - Full Metal Jacket\13 - Abigail Mead - Attack.wav

Pre-gap length 0:00:01.42

Peak level 41.9 %
Track quality 99.9 %
Test CRC E9F51781
Copy CRC E9F51781
Accurately ripped (confidence 12) [85C7D744]
Copy OK

Track 14

Filename C:\EACrips\Soundtrack - 1987 - Full Metal Jacket\14 - Abigail Mead - Time Suspended.wav

Peak level 66.2 %
Track quality 99.8 %
Test CRC 612AD17D
Copy CRC 612AD17D
Accurately ripped (confidence 12) [F4FB8279]
Copy OK

Track 15

Filename C:\EACrips\Soundtrack - 1987 - Full Metal Jacket\15 - Abigail Mead - Sniper.wav

Pre-gap length 0:00:00.33

Peak level 34.1 %
Track quality 99.9 %
Test CRC B2EE1C24
Copy CRC B2EE1C24
Accurately ripped (confidence 12) [E367517E]
Copy OK

All tracks accurately ripped

No errors occurred

End of status report
AUDIOCHECKER v2.0 beta (build 457) - by Dester - opdester@freemail.hu
~~~~~~~~~~~~~~~~~~~~~~~~~~~~~~~~~~
-=== DO NOT EDIT THIS FILE! ===-

Path: ...\Full Metal Jacket

01 -=- 01 - Abigail Mead & Nigel Goulding - Full Metal Jacket.flac -=- CDDA (100%)
02 -=- 02 - Johnny Wright - Hello Vietnam.flac -=- CDDA (100%)
03 -=- 03 - The Dixie Cups - Chapel Of Love.flac -=- CDDA (100%)
04 -=- 04 - Sam The Sham & The Pharoahs - Wooly Bully.flac -=- CDDA (100%)
05 -=- 05 - Chris Kenner - I Like It Like That.flac -=- CDDA (100%)
06 -=- 06 - Nancy Sinatra - These Boots Are Made For Walking.flac -=- CDDA (62%)
07 -=- 07 - The Trashmen - Surfin' Bird.flac -=- CDDA (100%)
08 -=- 08 - The Goldman Band - The Marines' Hymn.flac -=- CDDA (100%)
09 -=- 09 - Abigail Mead - Transition.flac -=- CDDA (100%)
10 -=- 10 - Abigail Mead - Parris Island.flac -=- CDDA (100%)
11 -=- 11 - Abigail Mead - Ruins.flac -=- CDDA (100%)
12 -=- 12 - Abigail Mead - Leonard.flac -=- CDDA (100%)
13 -=- 13 - Abigail Mead - Attack.flac -=- CDDA (100%)
14 -=- 14 - Abigail Mead - Time Suspended.flac -=- CDDA (100%)
15 -=- 15 - Abigail Mead - Sniper.flac -=- CDDA (100%)

Summary 97,47% CDDA

114320628


Трекер:  [ 09-Фев-2011 15:29 ]

  

Скачать .torrent

Размер .torrent файла 2 KB


Размер: 188 MB
Хэш (hash) релиза: a4e6cd56530ce4901d40c15737f80ab7d4215f05

bot

Топик был перенесен в форум Саундтреки к фильмам и мультфильмам (lossless)

Перенес AqvaGen

Хотите добавить комментарий к записи скачать торрент Full Metal Jacket Цельнометаллическая оболочка - 1987, FLAC

!Обратная связь