Скачать через торрент музыку Ennio Morricone - Western бесплатно без регистрации torrent

Если у вас наблюдаются проблемы со скриншотами, переходом по ссылками, скачиванием торрентов - проблемы в блокировщике рекламы AdBlock. #хорошегоДня!


Статистика раздачи
Размер:  424 MB   |    Зарегистрирован:  6 лет 2 месяца   |    .torrent скачан:  71 раз   |   
Раздают:  1  
   
Загрузка...
 
Автор Сообщение

Galfimbul

avatar Galfimbul


(Soundtrack) - O.S.T. Morricone Western ( Вестерн Морриконе) - CD + Book (18 posters)

Жанр: Soundtrack
Год выпуска диска: 2006
Производитель диска: Italy
Аудио кодек: FLAC
Тип рипа: image+.cue
Битрейт аудио: lossless
Продолжительность: 61.49 min.
Трэклист:


01 Duello nel Texas (Gunfight At Red Sands - 1963)
02 Per un pugno di dollari (A Fistful Of Dollars - 1964) *
03 Per qualche dollaro in piu (For A Few Dollars More - 1965) *
04 Una pistola per Ringo (A Pistol for Ringo - 1965) *
05 Il buono il brutto il cattivo (The Good, The Bad & the Ugly - 1966)
06 Faccia a Faccia (1967)
07 La resa dei conti (The Big Gundown - 1967)
08 C'era una volta il west (Once Upon A Time In The West - 1968)
09 Il grande silenzio (The Big Silence - 1968)
10 Tepepa (1968) *
11 Il mercenario (Revenge Of A Gunfighter - 1968)
12 Un esercito di cinque uomini (The 5-man Army - 1969)
13 Vamos a matar companeros (Companeros - 1970) (New Edit)
14 Giu la testa (A Fistful of Dynamite - 1971) (Stereo mix)
15 Sonny (Bandera Bandits - 1971)
16 Sweet Susan (Bandera Bandits - 1971)
17 Il mio nome e nessuno (My Name is Nobody - 1973)
18 Non fare L'indiano (Buddy Goes West - 1981)

* - first time on CD
Exact Audio Copy V0.99 prebeta 3 from 28. July 2007

Отчёт EAC об извлечении, выполненном 20. августа 2008, 17:20

Ennio Morricone / Western

Дисковод: HL-DT-STDVDRAM GSA-E40N Adapter: 2 ID: 0

Режим чтения : Достоверность
Использование точного потока : Да
Отключение кэша аудио : Да
Использование указателей C2 : Нет

Коррекция смещения при чтении : 667
Способность читать области Lead-in и Lead-out : Нет
Заполнение пропущенных сэмплов тишиной : Да
Удаление блоков с тишиной в начале и конце : Нет
При вычислениях CRC использовались нулевые сэмплы : Да
Интерфейс : Встроенный Win32-интерфейс для Win NT/2000

Выходной формат : Пользовательский кодировщик
Выбранный битрейт : 768 kBit/s
Качество : Высокий
Добавление ID3-тэга : Нет
Утилита сжатия : C:\Program Files\Exact Audio Copy\FLAC\FLAC.EXE
Дополнительные параметры : -6 -V -T "ARTIST=%a" -T "TITLE=%t" -T "ALBUM=%g" -T "DATE=%y" -T "TRACKNUMBER=%n" -T "GENRE=%m" -T "COMMENT=%e" %s -o %d

TOC извлечённого CD

Трек | Старт | Длительность | Начальный сектор | Конечный сектор
---------------------------------------------------------------------
1 | 0:00.00 | 4:53.45 | 0 | 22019
2 | 4:53.45 | 2:57.35 | 22020 | 35329
3 | 7:51.05 | 2:45.12 | 35330 | 47716
4 | 10:36.17 | 2:20.19 | 47717 | 58235
5 | 12:56.36 | 2:40.30 | 58236 | 70265
6 | 15:36.66 | 3:12.10 | 70266 | 84675
7 | 18:49.01 | 2:41.05 | 84676 | 96755
8 | 21:30.06 | 3:07.16 | 96756 | 110796
9 | 24:37.22 | 2:29.72 | 110797 | 122043
10 | 27:07.19 | 2:22.67 | 122044 | 132760
11 | 29:30.11 | 4:46.37 | 132761 | 154247
12 | 34:16.48 | 3:02.29 | 154248 | 167926
13 | 37:19.02 | 4:12.69 | 167927 | 186895
14 | 41:31.71 | 3:01.72 | 186896 | 200542
15 | 44:33.68 | 5:21.39 | 200543 | 224656
16 | 49:55.32 | 5:22.70 | 224657 | 248876
17 | 55:18.27 | 3:10.56 | 248877 | 263182
18 | 58:29.08 | 3:18.58 | 263183 | 278090

Характеристики диапазона извлечения и сообщения об ошибках

Выбранный диапазон

Имя файла D:\Музыка\Torrents\Morricone - Western\Ennio Morricone - Western.wav

Пиковый уровень 99.9 %
Качество диапазона 100.0 %
CRC копии 2E27E209
Копирование... OK

Ошибок не произошло

Конец отчёта


Трекер:  [ 07-Июл-2011 23:00 ]

  

Скачать .torrent

Размер .torrent файла 19 KB


Размер: 424 MB
Хэш (hash) релиза: 4c87a18a0940376509bbbbea1d7ea9a86f108095

Торренты, похожие на Ennio Morricone - Western скачать торрент

Форум Название Автор Размер S L Добавлен
Саундтреки к фильмам и мультфильмам (lossless) ·· (Soundtrack) Ennio Morricone - Film music maestro (3 CD - Film music masterpieces / Western themes / Gangster themes) - 2004, APE (image+.cue), lossless Galfimbul 807238022770 MB 0 0 1292268680

22:31

13-Дек-10

Саундтреки к фильмам и мультфильмам (mp3) ·· (Score) The Legendary Italian Westerns (by Ennio Morricone) - 1990, MP3 (tracks), 320 kbps Galfimbul 185927872177 MB 0 0 1292266228

21:50

13-Дек-10

Еще никто не оставлял запись к записи скачать торрент Ennio Morricone - Western . Будь первым!

!Обратная связь