Скачать через торрент музыку Vladimir Cosma - O.S.T. La Chevre Les Comperes бесплатно без регистрации torrent

Если у вас наблюдаются проблемы со скриншотами, переходом по ссылками, скачиванием торрентов - проблемы в блокировщике рекламы AdBlock. #хорошегоДня!


Статистика раздачи
Размер:  356 MB   |    Зарегистрирован:  6 лет 2 месяца   |    .torrent скачан:  59 раз   |   
Раздают:  1  
   
Загрузка...
 
Автор Сообщение

Galfimbul

avatar Galfimbul


Vladimir Cosma - O.S.T. - La Chevre / Les Comperes / Les Fugitifs ( Невезучие / Папаши / Беглецы )

Жанр: Soundtrack
Год выпуска диска: 20..
Производитель диска: France
Аудио кодек: FLAC
Тип рипа: image+.cue
Битрейт аудио: lossless
Продолжительность: 62.32 min.
Трэклист:


La Chevre - 1981

01 La Cabra - 3.42
02 El Duendecito - 3.51
03 Canela - 3.13
04 La Tortuga - 3.45
05 La Candelaria - 4.08
06 Azulado - 3.29

Les Comperes - 1983

07 Les Comperes - 3.34
08 Filature - 3.16
09 Theme De Tristan - 2.12
10 Sur Les Toits De Nice - 0.50
11 Pignon et Lucas - 2.38
12 Mon Fils - 2.12

Les Fugitifs - 1986

13 Les Fugitifs - 5.20
14 Legerement - 2.33
15 Ma Petite Fille - 2.50
16 Jeanne et Lucas - 1.53
17 La Petite Fille et le Clochard - 2.32
18 Theme de Jeanne - 3.00
19 La Blessure - 2.00
20 Les Fugitifs - final - 4.35

Доп. информация: Серийный сборник, включающий музыку Косма к трем фильмам Ф.Вебера: "Невезучие - 1981", "Папаши - 1983", "Беглецы - 1986". Рип с оригинала, сканы вложены.
Exact Audio Copy V0.99 prebeta 3 from 28. July 2007

Отчёт EAC об извлечении, выполненном 8. августа 2008, 15:50

Vladimir Cosma / La Chevre-Les Comperes-Les Fugitifs

Дисковод: HL-DT-STDVDRAM GSA-E40N Adapter: 2 ID: 0

Режим чтения : Достоверность
Использование точного потока : Да
Отключение кэша аудио : Да
Использование указателей C2 : Нет

Коррекция смещения при чтении : 667
Способность читать области Lead-in и Lead-out : Нет
Заполнение пропущенных сэмплов тишиной : Да
Удаление блоков с тишиной в начале и конце : Нет
При вычислениях CRC использовались нулевые сэмплы : Да
Интерфейс : Встроенный Win32-интерфейс для Win NT/2000

Выходной формат : Пользовательский кодировщик
Выбранный битрейт : 768 kBit/s
Качество : Высокий
Добавление ID3-тэга : Нет
Утилита сжатия : C:\Program Files\Exact Audio Copy\FLAC\FLAC.EXE
Дополнительные параметры : -6 -V -T "ARTIST=%a" -T "TITLE=%t" -T "ALBUM=%g" -T "DATE=%y" -T "TRACKNUMBER=%n" -T "GENRE=%m" -T "COMMENT=%e" %s -o %d

TOC извлечённого CD

Трек | Старт | Длительность | Начальный сектор | Конечный сектор
---------------------------------------------------------------------
1 | 0:00.32 | 3:42.50 | 32 | 16731
2 | 3:43.07 | 3:51.45 | 16732 | 34101
3 | 7:34.52 | 3:14.58 | 34102 | 48709
4 | 10:49.35 | 3:43.42 | 48710 | 65476
5 | 14:33.02 | 4:11.18 | 65477 | 84319
6 | 18:44.20 | 3:34.07 | 84320 | 100376
7 | 22:18.27 | 3:36.73 | 100377 | 116649
8 | 25:55.25 | 3:19.57 | 116650 | 131631
9 | 29:15.07 | 2:14.23 | 131632 | 141704
10 | 31:29.30 | 0:55.62 | 141705 | 145891
11 | 32:25.17 | 2:40.70 | 145892 | 157961
12 | 35:06.12 | 2:14.23 | 157962 | 168034
13 | 37:20.35 | 5:20.47 | 168035 | 192081
14 | 42:41.07 | 2:36.68 | 192082 | 203849
15 | 45:18.00 | 2:51.45 | 203850 | 216719
16 | 48:09.45 | 1:56.15 | 216720 | 225434
17 | 50:05.60 | 2:35.02 | 225435 | 237061
18 | 52:40.62 | 3:04.48 | 237062 | 250909
19 | 55:45.35 | 2:05.62 | 250910 | 260346
20 | 57:51.22 | 4:39.05 | 260347 | 281276

Характеристики диапазона извлечения и сообщения об ошибках

Выбранный диапазон

Имя файла D:\Музыка\Torrents\La Chevre - Les Comperes - Les Fugitifs\Vladimir Cosma - La Chevre-Les Comperes-Les Fugitifs.wav

Пиковый уровень 96.4 %
Качество диапазона 99.9 %
CRC копии F86B8817
Копирование... OK

Ошибок не произошло

Конец отчёта


Трекер:  [ 07-Июл-2011 23:01 ]

  

Скачать .torrent

Размер .torrent файла 15 KB


Размер: 356 MB
Хэш (hash) релиза: 371c5ec7c765f66c8877e36b6704dff6469ee7b8

Еще никто не оставлял запись к записи скачать торрент Vladimir Cosma - O.S.T. La Chevre Les Comperes . Будь первым!

!Обратная связь