Скачать через торрент музыку Jocelyn Pook - Собрание сочинений бесплатно без регистрации torrent

Если у вас наблюдаются проблемы со скриншотами, переходом по ссылками, скачиванием торрентов - проблемы в блокировщике рекламы AdBlock. #хорошегоДня!


Статистика раздачи
Размер:  1.3 GB   |    Зарегистрирован:  6 лет 2 месяца   |    .torrent скачан:  69 раз   |   
Раздают:  2  
   
Загрузка...
 
Автор Сообщение

Galfimbul

avatar Galfimbul


Jocelyn Pook - Собрание сочинений

Жанр: Score / Soundtrack | Годы выпуска дисков: 1999-2007 | Аудио кодек: APE, WAVPack | Тип рипа: image+.cue | Битрейт аудио: lossless

1. Requiem Aeternam
2. Migrations (1999 Mix)
3. Romeo And Juliet
4. Oppenheimer
5. Slow The Wind / Pie Jesu
6. Masked Ball (1999 Extended Remix)
7. Forever Without End (Solo Voices)
8. La Blanche Traversee
9. Thousand Year Dream
10. Goya's Nightmare
11. Forever Without End
12. Flood
 
Exact Audio Copy V0.99 prebeta 4 from 23. January 2008

EAC extraction logfile from 9. August 2008, 17:44

Jocelyn Pook / Flood

Used drive : HL-DT-STDVD-ROM GDR8161B Adapter: 4 ID: 1

Read mode : SecureUtilize accurate stream : YesDefeat audio cache : YesMake use of C2 pointers : No

Read offset correction : 102Overread into Lead-In and Lead-Out : NoFill up missing offset samples with silence : YesDelete leading and trailing silent blocks : NoNull samples used in CRC calculations : YesUsed interface : Installed external ASPI interface

Used output format : User Defined EncoderSelected bitrate : 1024 kBit/sQuality : HighAdd ID3 tag : NoCommand line compressor : C:\Programmi\Exact Audio Copy\WavPack\wavpack.exeAdditional command line options : -hm -w "Year=%y" -w "Genre=%m" %s %d

TOC of the extracted CD

Track | Start | Length | Start sector | End sector --------------------------------------------------------- 1 | 0:00.00 | 4:22.42 | 0 | 19691 2 | 4:22.42 | 3:47.33 | 19692 | 36749 3 | 8:10.00 | 5:12.25 | 36750 | 60174 4 | 13:22.25 | 6:42.07 | 60175 | 90331 5 | 20:04.32 | 2:57.33 | 90332 | 103639 6 | 23:01.65 | 6:07.60 | 103640 | 131224 7 | 29:09.50 | 1:52.25 | 131225 | 139649 8 | 31:02.00 | 3:57.42 | 139650 | 157466 9 | 34:59.42 | 3:48.58 | 157467 | 174624 10 | 38:48.25 | 5:53.02 | 174625 | 201101 11 | 44:41.27 | 4:45.40 | 201102 | 222516 12 | 49:26.67 | 4:47.30 | 222517 | 244071

Range status and errors

Selected range

Filename C:\Documents and Settings\marce58\Documenti\Jocelyn Pook - Flood\Jocelyn Pook - Flood.wav

Peak level 98.8 % Range quality 100.0 % Copy CRC 2A5B0411 Copy OK

No errors occurred

End of status report
1. Gyorgy Ligeti - Musica Ricercata, II (4:17)
2. Dimitri Shostakovich - Waltz #2 From Jazz Suite (3:41)
3. Chris Issak - Baby Did A Bad Bad Thing (2:54)
4. The Victor Silvester Orchestra - When I Fall In Love (3:00)
5. The Oscar Peterson Trio - I Got It Bad (And That Ain't Good) (3:11)
6. Jocelyn Pook - Naval Officer (4:51)
7. Jocelyn Pook - The Dream (4:57)
8. Jocelyn Pook - Masked Ball (3:42)
9. Jocelyn Pook - Migrations (3:44)
10. Roy Gerson - If I Had You (7:01)
11. Peter Hughs Orchestra - Strangers In The Night (2:31)
12. Brad Mehidau - Blame It On My Youth (6:17)
13. Franz Liszt - Gray Clouds (3:19)
14. Gyorgy Ligeti - Musica Ricercata, II (Reprise) (4:17)
 
EAC extraction logfile from 28. September 2005, 13:08 for CDVarious Artists / Eyes Wide Shut o.s.t.

Used drive : SONY CD-ROM CDU5221 Adapter: 0 ID: 1Read mode : Secure with NO C2, accurate stream, disable cacheCombined read/write offset correction : 0Overread into Lead-In and Lead-Out : No

Used output format : Internal WAV Routines 44.100 Hz; 16 Bit; Stereo

Other options : Fill up missing offset samples with silence : Yes Delete leading and trailing silent blocks : No Installed external ASPI interface

Range status and errorsSelected range Filename C:\Eyes Wide Shut.wav

Peak level 100.0 % Range quality 100.0 % CRC FA0AF5EE Copy OK

No errors occured

End of status report
Источник - HQShare.net
Музыка к последнему шедевру Стэнли Кубрика - как и фильм, столь же хороша.
1. Dionysus
2. Red Song
3. Upon This Rock
4. Yellow Fever Psalm
5. Hell, Fire And Damnation
6. Take Off Your Veil
7. The Last Day
8. Saints And Sinners
9. Butter Fly Song
10. Calls, Cries And Clamours
11. Saffron
 
Exact Audio Copy V0.99 prebeta 4 from 23. January 2008

EAC extraction logfile from 7. August 2008, 18:45

Jocelyn Pook / Untold Things

Used drive : HL-DT-STDVD-ROM GDR8161B Adapter: 4 ID: 1

Read mode : SecureUtilize accurate stream : YesDefeat audio cache : YesMake use of C2 pointers : No

Read offset correction : 102Overread into Lead-In and Lead-Out : NoFill up missing offset samples with silence : YesDelete leading and trailing silent blocks : NoNull samples used in CRC calculations : YesUsed interface : Installed external ASPI interface

Used output format : User Defined EncoderSelected bitrate : 1024 kBit/sQuality : HighAdd ID3 tag : NoCommand line compressor : C:\Programmi\Exact Audio Copy\WavPack\wavpack.exeAdditional command line options : -hm -w "Year=%y" -w "Genre=%m" %s %d

TOC of the extracted CD

Track | Start | Length | Start sector | End sector --------------------------------------------------------- 1 | 0:00.00 | 5:00.15 | 0 | 22514 2 | 5:00.15 | 4:08.25 | 22515 | 41139 3 | 9:08.40 | 5:15.47 | 41140 | 64811 4 | 14:24.12 | 5:00.15 | 64812 | 87326 5 | 19:24.27 | 5:20.30 | 87327 | 111356 6 | 24:44.57 | 4:56.23 | 111357 | 133579 7 | 29:41.05 | 4:57.27 | 133580 | 155881 8 | 34:38.32 | 4:11.50 | 155882 | 174756 9 | 38:50.07 | 3:39.35 | 174757 | 191216 10 | 42:29.42 | 3:28.65 | 191217 | 206881 11 | 45:58.32 | 4:29.30 | 206882 | 227086

Range status and errors

Selected range

Filename C:\Documents and Settings\marce58\Documenti\Jocelyn Pook - Untold Things\Jocelyn Pook - Untold Things.wav

Peak level 98.8 % Range quality 100.0 % Copy CRC 74800612 Copy OK

No errors occurred

End of status report
1. With Wand'ring Steps (2:09)
Andreas Scholl [Voice]
2. Her Gentle Spirit (2:53)
3. Ghetto (2:00)
Uri Yehuda [Singer]
4. Blessing Of The Boat (2:03)
Harvey Brough [Voice]
5. Synagogue Cantors (1:33)
6. Portia (1:50)
7. How Sweet The Moonlight (4:16)
Andreas Scholl [Voice]
8. Song For Bassanio (1:38)
Ben Crawley [Voice]
9. The Feast (Propinan de Melyor) (1:05)
Harvey Brough [Psaltery]
10. Bassanio's Palazzo (Tarantella) (1:22)
Baroque String Quartet [Ensemble]
11. The Ring Returned (1:19)
12. A Subdued Wedding (1:02)
13. Courtroom Drama (3:14)
14. Jessica Escapes (2:14)
15. Hayley Westenra - Bridal Ballad (4:35)
16. Banquet For Shylock (Tourdion) (1:32)
Harvey Brough [Psaltery]
17. Unsuitable Suitors (Folias) (1:06)
Harvey Brough [Guitar]
18. Song in Brothel (Paseabase el Rey Moro) (2:40)
Clara Sanabras [Voice]
19. A Spectacular Procession (1:07)
Tristan Fry [Snare Drum]
20. Fie Fie Gratiano (2:21)
21. Bassanio Opens The Casket (1:05)
22. Shylock Broken (2:05)
23. Last Words (2:00)
24. The Floor Of Heaven (1:48)
Baroque String Quartet [Ensemble]
25. You Drop Manna (1:04)
26. With Wand'ring Steps (2:40)
Andreas Scholl [Voice]
 
EAC extraction logfile from 18. October 2006, 0:09 for CDJocelyn Pook / The Merchant of Venice

Used drive : PIONEER DVD-RW DVR-111 Adapter: 0 ID: 0Read mode : Secure with NO C2, accurate stream, disable cacheRead offset correction : 48Overread into Lead-In and Lead-Out : No

Used output format : Internal WAV Routines 44.100 Hz; 16 Bit; Stereo

Other options : Fill up missing offset samples with silence : Yes Delete leading and trailing silent blocks : No Installed external ASPI interface

Range status and errorsSelected range Filename G:\Jocelyn Pook - The Merchant of Venice.wav

Peak level 97.9 % Range quality 100.0 % CRC 6FA9C0C3 Copy OK

No errors occured

End of status report
1. Adam's Lullaby
2. Memories Of A Summer
3. Poem
4. Running Through The Night
5. Song Of The Boatman
6. A World Changed
7. Quiet Joy
8. Picnic At The Palace
9. Tapur Tupur
10. Love Blossoms
11. Rite Of Passage
12. Departure
13. Leelabali
14. Childhood Fragments
15. Dreaming
16. Playing In The Paddy Fields
17. The First Kiss
18. Dol Dol Duluni
 
Exact Audio Copy V0.99 prebeta 3 from 28. July 2007

EAC extraction logfile from 20. December 2007, 15:19

Unknown Artist / Unknown Title

Used drive : BENQ DVD DD DW1640 Adapter: 1 ID: 0

Read mode : SecureUtilize accurate stream : YesDefeat audio cache : YesMake use of C2 pointers : No

Read offset correction : 618Overread into Lead-In and Lead-Out : NoFill up missing offset samples with silence : YesDelete leading and trailing silent blocks : NoNull samples used in CRC calculations : YesUsed interface : Installed external ASPI interface

Used output format : User Defined EncoderSelected bitrate : 128 kBit/sQuality : HighAdd ID3 tag : NoCommand line compressor : C:\Program Files\WavPack\wavpack.exeAdditional command line options : -w "Artist=%a" -w "Title=%t" -w "Album=%g" -w "Year=%y" -w "Track=%n" -w "Genre=%m" -h %s %d

TOC of the extracted CD

Track | Start | Length | Start sector | End sector --------------------------------------------------------- 1 | 0:00.00 | 3:06.21 | 0 | 13970 2 | 3:06.21 | 4:03.72 | 13971 | 32267 3 | 7:10.18 | 1:58.33 | 32268 | 41150 4 | 9:08.51 | 3:13.20 | 41151 | 55645 5 | 12:21.71 | 3:49.45 | 55646 | 72865 6 | 16:11.41 | 2:36.25 | 72866 | 84590 7 | 18:47.66 | 3:06.12 | 84591 | 98552 8 | 21:54.03 | 1:58.20 | 98553 | 107422 9 | 23:52.23 | 2:46.34 | 107423 | 119906 10 | 26:38.57 | 2:45.21 | 119907 | 132302 11 | 29:24.03 | 2:04.10 | 132303 | 141612 12 | 31:28.13 | 1:50.10 | 141613 | 149872 13 | 33:18.23 | 2:41.48 | 149873 | 161995 14 | 35:59.71 | 1:50.65 | 161996 | 170310 15 | 37:50.61 | 6:06.44 | 170311 | 197804 16 | 43:57.30 | 2:59.38 | 197805 | 211267 17 | 46:56.68 | 1:49.05 | 211268 | 219447 18 | 48:45.73 | 1:52.66 | 219448 | 227913

Range status and errors

Selected range

Filename D:\Jocelyn Pook - Brick Lane\Jocelyn Pook - Brick Lane.wav

Peak level 99.5 % Range quality 100.0 % Copy CRC 2CDE45A8 Copy OK

No errors occurred

End of status report

Редкий дар, присущий женщине - создавать удивительно красивую, пронзительно - тревожную, музыку бездонных глубин. Jocelyn Pook - скрипачка, композитор и друг Майкла Наймана - обладает им в полной мере. Рекомендую!



Трекер:  [ 07-Июл-2011 23:02 ]

  

Скачать .torrent

Размер .torrent файла 15 KB


Размер: 1.3 GB
Хэш (hash) релиза: f3191877e4fd0617d1b395134525059b7e0a890f

Еще никто не оставлял запись к записи скачать торрент Jocelyn Pook - Собрание сочинений . Будь первым!

!Обратная связь