Скачать через торрент музыку VA - Fast & Furious Форсаж 4 - 2009, FLAC бесплатно без регистрации torrent

Если у вас наблюдаются проблемы со скриншотами, переходом по ссылками, скачиванием торрентов - проблемы в блокировщике рекламы AdBlock. #хорошегоДня!


Статистика раздачи
Размер:  289 MB   |    Зарегистрирован:  6 лет 2 месяца   |    .torrent скачан:  89 раз   |   
Раздают:  1  
   
Загрузка...
 
Автор Сообщение

Galfimbul

avatar Galfimbul


VA - Fast & Furious / Форсаж 4

Жанр: Soundtrack
Год выпуска диска: 2009
Производитель диска: Russia
Аудио кодек: FLAC
Тип рипа: tracks+.cue
Битрейт аудио: lossless
Продолжительность: 00:40:36
Трэклист:
01. Rye Rye — Bang (feat. M.I.A.)
02. Busta Rhymes — G-Stro
03. Kenna — Loose wires
04. Pitbull — Blanco (feat. Pharrell)
05. Pitbull — Krazy (feat. Lil Jon)
06. Pitbull — You slip she grip (feat. Tego Calderon)
07. Shark city click — Head bust
08. Pitbull — Bad girls (feat. Robin Thicke)
09. Don Omar — Virtual Diva
10. Tasha — La Isla Bonita
Bonus:
11. Pitbull — Blanco feat. Pharrell (Spanish Version)
Exact Audio Copy V0.99 prebeta 5 from 4. May 2009

EAC extraction logfile from 24. November 2009, 19:26

Various / Fast&Furious Soundtrack (Explicit)

Used drive : Optiarc DVD RW AD-7203S Adapter: 1 ID: 0

Read mode : Secure
Utilize accurate stream : Yes
Defeat audio cache : Yes
Make use of C2 pointers : No

Read offset correction : 48
Overread into Lead-In and Lead-Out : No
Fill up missing offset samples with silence : Yes
Delete leading and trailing silent blocks : No
Null samples used in CRC calculations : Yes
Used interface : Native Win32 interface for Win NT & 2000
Gap handling : Appended to previous track

Used output format : User Defined Encoder
Selected bitrate : 1024 kBit/s
Quality : High
Add ID3 tag : No
Command line compressor : C:\Program Files\Exact Audio Copy\Flac\flac.exe
Additional command line options : -8 -V -T "ARTIST=%a" -T "TITLE=%t" -T "ALBUM=%g" -T "DATE=%y" -T "TRACKNUMBER=%n" -T "GENRE=%m" -T "COMMENT=ripped by 1YURAN7" %s

TOC of the extracted CD

Track | Start | Length | Start sector | End sector
---------------------------------------------------------
1 | 0:00.00 | 3:32.43 | 0 | 15942
2 | 3:32.43 | 3:41.72 | 15943 | 32589
3 | 7:14.40 | 3:46.48 | 32590 | 49587
4 | 11:01.13 | 3:22.11 | 49588 | 64748
5 | 14:23.24 | 3:52.36 | 64749 | 82184
6 | 18:15.60 | 3:13.00 | 82185 | 96659
7 | 21:28.60 | 3:55.65 | 96660 | 114349
8 | 25:24.50 | 4:03.46 | 114350 | 132620
9 | 29:28.21 | 4:00.38 | 132621 | 150658
10 | 33:28.59 | 3:46.20 | 150659 | 167628
11 | 37:15.04 | 3:21.61 | 167629 | 182764

Track 1

Filename F:\Fast & Furious\01 - Bang - Rye Rye Feat. Mia.wav

Pre-gap length 0:00:02.00

Peak level 98.8 %
Track quality 100.0 %
Test CRC 48A673A9
Copy CRC 48A673A9
Accurately ripped (confidence 3) [2C0959C3]
Copy OK

Track 2

Filename F:\Fast & Furious\02 - G-Stro - Busta Rhymes.wav

Peak level 98.8 %
Track quality 100.0 %
Test CRC 9D6B645F
Copy CRC 9D6B645F
Accurately ripped (confidence 3) [0F93D329]
Copy OK

Track 3

Filename F:\Fast & Furious\03 - Loose Wires - Kenna.wav

Peak level 98.8 %
Track quality 100.0 %
Test CRC 66C6A1B9
Copy CRC 66C6A1B9
Accurately ripped (confidence 3) [1B4C2E4C]
Copy OK

Track 4

Filename F:\Fast & Furious\04 - Blanco - Pitbull Feat. Pharrell.wav

Peak level 97.7 %
Track quality 100.0 %
Test CRC 4B81B134
Copy CRC 4B81B134
Accurately ripped (confidence 3) [9083F9B1]
Copy OK

Track 5

Filename F:\Fast & Furious\05 - Krazy - Pitbull Feat. Lil Jon.wav

Peak level 98.8 %
Track quality 100.0 %
Test CRC C5B079F3
Copy CRC C5B079F3
Accurately ripped (confidence 3) [D453FA59]
Copy OK

Track 6

Filename F:\Fast & Furious\06 - You Slip, She Grip - Pitbull and Tego Calderon.wav

Peak level 97.7 %
Track quality 100.0 %
Test CRC 821372CD
Copy CRC 821372CD
Accurately ripped (confidence 3) [FCD12521]
Copy OK

Track 7

Filename F:\Fast & Furious\07 - Head Bust - Shark City Click.wav

Peak level 98.8 %
Track quality 100.0 %
Test CRC B97CC799
Copy CRC B97CC799
Accurately ripped (confidence 3) [7069AC71]
Copy OK

Track 8

Filename F:\Fast & Furious\08 - Bad Girls - Pitbull Feat. Robin Thicke.wav

Peak level 98.8 %
Track quality 100.0 %
Test CRC 26C4821F
Copy CRC 26C4821F
Accurately ripped (confidence 3) [0C42BA07]
Copy OK

Track 9

Filename F:\Fast & Furious\09 - Virtual Diva - Don Omar.wav

Peak level 98.8 %
Track quality 100.0 %
Test CRC 7626EEFB
Copy CRC 7626EEFB
Accurately ripped (confidence 3) [9BA32609]
Copy OK

Track 10

Filename F:\Fast & Furious\10 - La Isla Bonita - Tasha.wav

Pre-gap length 0:00:01.21

Peak level 98.8 %
Track quality 100.0 %
Test CRC 71518994
Copy CRC 71518994
Accurately ripped (confidence 3) [1669195A]
Copy OK

Track 11

Filename F:\Fast & Furious\11 - Blanco - Pitbull Feat. Pharrell [The Spanish Version] (Album Bonus).wav

Pre-gap length 0:00:01.14

Peak level 97.7 %
Track quality 100.0 %
Test CRC 399BBFA5
Copy CRC 399BBFA5
Accurately ripped (confidence 3) [788CEBC5]
Copy OK

All tracks accurately ripped

No errors occurred

End of status report
AUDIOCHECKER v2.0 beta (build 457) - by Dester - opdester@freemail.hu
~~~~~~~~~~~~~~~~~~~~~~~~~~~~~~~~~~
-=== НЕ РЕДАКТИРУЙТЕ ЭТОТ ФАЙЛ! ===-

Путь: ...\VA - Fast & Furious OST

01 -=- 01 - Bang - Rye Rye Feat. Mia.flac -=- CDDA (100%)
02 -=- 02 - G-Stro - Busta Rhymes.flac -=- CDDA (100%)
03 -=- 03 - Loose Wires - Kenna.flac -=- CDDA (99%)
04 -=- 04 - Blanco - Pitbull Feat. Pharrell.flac -=- CDDA (100%)
05 -=- 05 - Krazy - Pitbull Feat. Lil Jon.flac -=- CDDA (100%)
06 -=- 06 - You Slip, She Grip - Pitbull and Tego Calderon.flac -=- CDDA (99%)
07 -=- 07 - Head Bust - Shark City Click.flac -=- CDDA (99%)
08 -=- 08 - Bad Girls - Pitbull Feat. Robin Thicke.flac -=- CDDA (100%)
09 -=- 09 - Virtual Diva - Don Omar.flac -=- MPEG (95%)
10 -=- 10 - La Isla Bonita - Tasha.flac -=- CDDA (100%)
11 -=- 11 - Blanco - Pitbull Feat. Pharrell [The Spanish Version] (Album Bonus).flac -=- CDDA (100%)

Сводка 91,09% CDDA

59058452


Трекер:  [ 07-Июл-2011 23:04 ]

  

Скачать .torrent

Размер .torrent файла 12 KB


Размер: 289 MB
Хэш (hash) релиза: b7eef3527d65d3d3bd691906cfcb8cbc73a1c09f

Еще никто не оставлял запись к записи скачать торрент VA - Fast & Furious Форсаж 4 - 2009, FLAC . Будь первым!

!Обратная связь