Скачать через торрент музыку VA - Mark Mancina & Various - August Rush - 2007, APE бесплатно без регистрации torrent

Если у вас наблюдаются проблемы со скриншотами, переходом по ссылками, скачиванием торрентов - проблемы в блокировщике рекламы AdBlock. #хорошегоДня!


Статистика раздачи
Размер:  312 MB   |    Зарегистрирован:  6 лет 2 месяца   |    .torrent скачан:  43 раза   |   
Раздают:  1  
   
Загрузка...
 
Автор Сообщение

Galfimbul

avatar Galfimbul


Mark Mancina & Various - August Rush

Страна: USA
Жанр: Soundtrack
Год выпуска: 2007
Формат: APE (image + .cue)
Битрейт аудио: lossless
Продолжительность: 00:50:31
Трэклист:
01. Mark Mancina - Main Title (2:21)
02. Steve Erdody & Jonathan Rhys Meyers - Bach / Break (3:52)
03. Jonathan Rhys Meyers - Moondance (1:51)
04. Jonathan Rhys Meyers - This Time (4:13)
05. Kaki King - Bari Improv (1:37)
06. Kaki King - Ritual Dance (1:35)
07. James Simone Nash & Impact Repertory Theatre - Raise It Up (2:29)
08. Heitor Pereira & Doug Smith - Dueling Guitars (2:36)
09. Steve Erdody & Jonathan Rhys Meyers - Elgar / Something Inside (4:53)
10. Mark Mancina - August's Rhapsody (7:37)
11. John Legend - Someday (3:04)
12. John Ondrasik - King Of The Earth (3:45)
13. Chris Botti & Paula Cole - God Bless The Child (4:30)
14. Leon Thomas III - La Bamba (3:49)
15. Chris Botti - Moondance (Hidden Track) (2:20)
Exact Audio Copy V0.99 prebeta 3 from 28. July 2007

EAC extraction logfile from 4. January 2008, 12:59

Various / August Rush

Used drive : LITE-ON DVDRW SHW-1635S Adapter: 1 ID: 0

Read mode : Secure
Utilize accurate stream : Yes
Defeat audio cache : Yes
Make use of C2 pointers : No

Read offset correction : 6
Overread into Lead-In and Lead-Out : No
Fill up missing offset samples with silence : Yes
Delete leading and trailing silent blocks : No
Null samples used in CRC calculations : Yes
Used interface : Installed external ASPI interface

Used output format : Internal WAV Routines
Sample format : 44.100 Hz; 16 Bit; Stereo

TOC of the extracted CD

Track | Start | Length | Start sector | End sector
---------------------------------------------------------
1 | 0:00.00 | 2:20.54 | 0 | 10553
2 | 2:20.54 | 3:51.69 | 10554 | 27947
3 | 6:12.48 | 1:50.46 | 27948 | 36243
4 | 8:03.19 | 4:12.60 | 36244 | 55203
5 | 12:16.04 | 1:36.48 | 55204 | 62451
6 | 13:52.52 | 1:35.01 | 62452 | 69577
7 | 15:27.53 | 2:28.38 | 69578 | 80715
8 | 17:56.16 | 2:35.62 | 80716 | 92402
9 | 20:32.03 | 4:52.74 | 92403 | 114376
10 | 25:25.02 | 7:37.09 | 114377 | 148660
11 | 33:02.11 | 3:04.19 | 148661 | 162479
12 | 36:06.30 | 3:44.54 | 162480 | 179333
13 | 39:51.09 | 4:30.08 | 179334 | 199591
14 | 44:21.17 | 3:49.33 | 199592 | 216799
15 | 48:10.50 | 2:19.67 | 216800 | 227291

Range status and errors

Selected range

Filename D:\Mark Mancina & Various - August Rush\August Rush.wav

Peak level 98.8 %
Range quality 100.0 %
Copy CRC 8DB804DB
Copy OK

No errors occurred

AccurateRip summary

Track 1 not present in database
Track 2 not present in database
Track 3 not present in database
Track 4 not present in database
Track 5 not present in database
Track 6 not present in database
Track 7 not present in database
Track 8 not present in database
Track 9 not present in database
Track 10 not present in database
Track 11 not present in database
Track 12 not present in database
Track 13 not present in database
Track 14 not present in database
Track 15 not present in database

None of the tracks are present in the AccurateRip database

End of status report


Трекер:  [ 07-Июл-2011 23:05 ]

  

Скачать .torrent

Размер .torrent файла 13 KB


Размер: 312 MB
Хэш (hash) релиза: 3338a3b23d6268d9e8a5c8ae368aead103c562ba

Еще никто не оставлял запись к записи скачать торрент VA - Mark Mancina & Various - August Rush - 2007, APE . Будь первым!

!Обратная связь