Скачать через торрент музыку Broken Flowers Сломанные Цветы - 2005, APE бесплатно без регистрации torrent

Если у вас наблюдаются проблемы со скриншотами, переходом по ссылками, скачиванием торрентов - проблемы в блокировщике рекламы AdBlock. #хорошегоДня!


Статистика раздачи
Размер:  226 MB   |    Зарегистрирован:  6 лет 5 месяцев   |    .torrent скачан:  47 раз   |   
Раздают:  2  
   
Загрузка...
 
Автор Сообщение

AqvaGen


(ost) broken flowers - сломанные цветы - 2005, APE (image + .cue), lossless

Страна: сша
Жанр: soundtrack
Год выпуска: 2005
Формат: APE (image + .cue)
Битрейт аудио: lossless
Продолжительность: 40 мин.

Трэклист:
01. There Is An End - Greenhornes with Holly Golightly
02. Yegelle Tezeta - Mulatu Astatke
03. Ride Your Donkey - The Tennors
04. I Want You - Marvin Gaye
05. Yekermo Sew - Mulatu Astatke
06. Not If You Were The Last Dandy On Earth - Brian Jonestown Massacre
07. Tell Me Now So I Know - Holly Golightly
08. Gubelye - Mulatu Astatke
09. Dopesmoker - Sleep
10. Requiem, Op. 48 (Pie Jesu) By Gabriel Fauré - Oxford Camerata
11. Ethanopium - Dengue Fever
12. Unnatural Habitat - The Greenhornes
Exact Audio Copy V0.99 prebeta 3 from 28. July 2007

Отчёт EAC об извлечении, выполненном 23. января 2008, 17:01

Various Artists / Broken Flowers (OST)

Дисковод: HL-DT-STDVDRAM GSA-T20N Adapter: 1 ID: 0

Режим чтения : Достоверность
Использование точного потока : Да
Отключение кэша аудио : Да
Использование указателей C2 : Нет

Коррекция смещения при чтении : 667
Способность читать области Lead-in и Lead-out : Нет
Заполнение пропущенных сэмплов тишиной : Да
Удаление блоков с тишиной в начале и конце : Нет
При вычислениях CRC использовались нулевые сэмплы : Да
Интерфейс : Встроенный Win32-интерфейс для Win NT/2000

Выходной формат : Внутренние WAV-операции
Формат сэмплов : 44.100 Гц; 16 бит; стерео

TOC извлечённого CD

Трек | Старт | Длительность | Начальный сектор | Конечный сектор
---------------------------------------------------------------------
1 | 0:00.00 | 3:05.60 | 0 | 13934
2 | 3:05.60 | 3:14.35 | 13935 | 28519
3 | 6:20.20 | 2:03.62 | 28520 | 37806
4 | 8:24.07 | 3:57.24 | 37807 | 55605
5 | 12:21.31 | 4:03.63 | 55606 | 73893
6 | 16:25.19 | 2:49.19 | 73894 | 86587
7 | 19:14.38 | 2:02.47 | 86588 | 95784
8 | 21:17.10 | 4:35.67 | 95785 | 116476
9 | 25:53.02 | 3:57.19 | 116477 | 134270
10 | 29:50.21 | 3:30.17 | 134271 | 150037
11 | 33:20.38 | 4:38.01 | 150038 | 170888
12 | 37:58.39 | 2:08.19 | 170889 | 180507

Характеристики диапазона извлечения и сообщения об ошибках

Выбранный диапазон

Имя файла D:\Various Artists - Broken Flowers (OST).wav

Пиковый уровень 98.6 %
Качество диапазона 100.0 %
CRC копии 36EBC05A
Копирование... OK

Ошибок не произошло

Конец отчёта


Трекер:  [ 06-Апр-2011 11:07 ]

  

Скачать .torrent

Размер .torrent файла 18 KB


Размер: 226 MB
Хэш (hash) релиза: de2dbb92430e6adcedbbff4d1692d969306e4734

bot

Топик был перенесен в форум Саундтреки к фильмам и мультфильмам (lossless)

Перенес AqvaGen

Хотите добавить комментарий к записи скачать торрент Broken Flowers Сломанные Цветы - 2005, APE

!Обратная связь