Скачать через торрент музыку Каратэ-пацан The Karate Kid бесплатно без регистрации torrent

Если у вас наблюдаются проблемы со скриншотами, переходом по ссылками, скачиванием торрентов - проблемы в блокировщике рекламы AdBlock. #хорошегоДня!


Статистика раздачи
Размер:  273 MB   |    Зарегистрирован:  6 лет 11 месяцев   |    .torrent скачан:  53 раза   |   
Раздают:  1  
   
Загрузка...
 
Автор Сообщение

AqvaGen


Каратэ-пацан / The Karate Kid



Жанр: Score
Композитор: James Horner




Год выпуска диска/фильма: 2010
Страна-производитель диска: United States
Издатель (лейбл): Madison Gate Records




Аудио кодек: FLAC (*.flac)
Тип рипа: tracks+.cue
Битрейт аудио: lossless
Продолжительность: 1:04:20
Наличие сканов в содержимом раздачи: нет
01. Leaving Detroit (2:55)
02. Looking For Mr. Han (1:29)
03. Kung Fu Heaven (1:20)
04. “I Want To Go Home” – The Forbidden City (4:30)
05. The Lunchroom (2:29)
06. Backstreet Beating (3:34)
07. Han’s Kung Fu (1:40)
08. Ancient Chinese Medicine (1:26)
09. Beijing Valentine (1:34)
10. Mei Ying’s Kiss (3:23)
11. Jacket On, Jacket Off (2:32)
12. Journey To The Spiritual Mountain (8:49)
13. Hard Training (1:21)
14. All Work And No Play (1:41)
15. From Master To Student To Master (10:33)
16. Dre’s Gift And Apology (3:07)
17. Tournament Time (5:09)
18. Final Contest (6:48)

 
Exact Audio Copy V0.99 prebeta 5 from 4. May 2009

EAC extraction logfile from 19. July 2010, 23:44

James Horner / The Karate Kid

Used drive : SONY DVD RW DRU-700A Adapter: 0 ID: 1

Read mode : SecureUtilize accurate stream : YesDefeat audio cache : YesMake use of C2 pointers : No

Read offset correction : 12Overread into Lead-In and Lead-Out : NoFill up missing offset samples with silence : YesDelete leading and trailing silent blocks : NoNull samples used in CRC calculations : NoUsed interface : Native Win32 interface for Win NT & 2000Gap handling : Appended to previous track

Used output format : User Defined EncoderSelected bitrate : 320 kBit/sQuality : HighAdd ID3 tag : NoCommand line compressor : C:\Program Files (x86)\Exact Audio Copy\FLAC\FLAC.EXEAdditional command line options : -V -8 -T "artist=%a" -T "title=%t" -T "album=%g" -T "date=%y" -T "tracknumber=%n" -T "genre=%m" %s

TOC of the extracted CD

Track | Start | Length | Start sector | End sector --------------------------------------------------------- 1 | 0:00.00 | 2:54.73 | 0 | 13122 2 | 2:54.73 | 1:29.23 | 13123 | 19820 3 | 4:24.21 | 1:19.38 | 19821 | 25783 4 | 5:43.59 | 4:29.38 | 25784 | 45996 5 | 10:13.22 | 2:29.27 | 45997 | 57198 6 | 12:42.49 | 3:34.22 | 57199 | 73270 7 | 16:16.71 | 1:39.43 | 73271 | 80738 8 | 17:56.39 | 1:25.64 | 80739 | 87177 9 | 19:22.28 | 1:34.08 | 87178 | 94235 10 | 20:56.36 | 3:22.72 | 94236 | 109457 11 | 24:19.33 | 2:32.14 | 109458 | 120871 12 | 26:51.47 | 8:49.05 | 120872 | 160551 13 | 35:40.52 | 1:20.46 | 160552 | 166597 14 | 37:01.23 | 1:41.00 | 166598 | 174172 15 | 38:42.23 | 10:33.08 | 174173 | 221655 16 | 49:15.31 | 3:07.34 | 221656 | 235714 17 | 52:22.65 | 5:09.34 | 235715 | 258923 18 | 57:32.24 | 6:47.59 | 258924 | 289507

Track 1

Filename P:\Music\The Karate Kid (2010, FLAC) - James Horner\01 - Leaving Detroit.wav

Pre-gap length 0:00:02.00

Peak level 39.6 % Track quality 99.9 % Test CRC ACA4C32E Copy CRC ACA4C32E Track not present in AccurateRip database Copy OK

Track 2

Filename P:\Music\The Karate Kid (2010, FLAC) - James Horner\02 - Looking For Mr. Han.wav

Peak level 22.3 % Track quality 99.8 % Test CRC F3769075 Copy CRC F3769075 Track not present in AccurateRip database Copy OK

Track 3

Filename P:\Music\The Karate Kid (2010, FLAC) - James Horner\03 - Kung Fu Heaven.wav

Peak level 57.9 % Track quality 100.0 % Test CRC 820FBF42 Copy CRC 820FBF42 Track not present in AccurateRip database Copy OK

Track 4

Filename P:\Music\The Karate Kid (2010, FLAC) - James Horner\04 - “I Want To Go Home” – The Forbidden City.wav

Peak level 57.2 % Track quality 100.0 % Test CRC ABC4C67B Copy CRC ABC4C67B Track not present in AccurateRip database Copy OK

Track 5

Filename P:\Music\The Karate Kid (2010, FLAC) - James Horner\05 - The Lunchroom.wav

Peak level 43.1 % Track quality 100.0 % Test CRC 65ECFEA7 Copy CRC 65ECFEA7 Track not present in AccurateRip database Copy OK

Track 6

Filename P:\Music\The Karate Kid (2010, FLAC) - James Horner\06 - Backstreet Beating.wav

Peak level 100.0 % Track quality 100.0 % Test CRC 91B5E8A9 Copy CRC 91B5E8A9 Track not present in AccurateRip database Copy OK

Track 7

Filename P:\Music\The Karate Kid (2010, FLAC) - James Horner\07 - Han’s Kung Fu.wav

Peak level 87.0 % Track quality 100.0 % Test CRC E9582245 Copy CRC E9582245 Track not present in AccurateRip database Copy OK

Track 8

Filename P:\Music\The Karate Kid (2010, FLAC) - James Horner\08 - Ancient Chinese Medicine.wav

Peak level 45.6 % Track quality 100.0 % Test CRC 81E0D53B Copy CRC 81E0D53B Track not present in AccurateRip database Copy OK

Track 9

Filename P:\Music\The Karate Kid (2010, FLAC) - James Horner\09 - Beijing Valentine.wav

Peak level 16.8 % Track quality 100.0 % Test CRC 67AC2AA7 Copy CRC 67AC2AA7 Track not present in AccurateRip database Copy OK

Track 10

Filename P:\Music\The Karate Kid (2010, FLAC) - James Horner\10 - Mei Ying’s Kiss.wav

Peak level 54.0 % Track quality 100.0 % Test CRC F1AACD85 Copy CRC F1AACD85 Track not present in AccurateRip database Copy OK

Track 11

Filename P:\Music\The Karate Kid (2010, FLAC) - James Horner\11 - Jacket On, Jacket Off.wav

Peak level 100.0 % Track quality 100.0 % Test CRC 0D3B7ABA Copy CRC 0D3B7ABA Track not present in AccurateRip database Copy OK

Track 12

Filename P:\Music\The Karate Kid (2010, FLAC) - James Horner\12 - Journey To The Spiritual Mountain.wav

Peak level 100.0 % Track quality 100.0 % Test CRC EFD00FDF Copy CRC EFD00FDF Track not present in AccurateRip database Copy OK

Track 13

Filename P:\Music\The Karate Kid (2010, FLAC) - James Horner\13 - Hard Training.wav

Peak level 93.0 % Track quality 100.0 % Test CRC AACFC23A Copy CRC AACFC23A Track not present in AccurateRip database Copy OK

Track 14

Filename P:\Music\The Karate Kid (2010, FLAC) - James Horner\14 - All Work And No Play.wav

Peak level 29.9 % Track quality 100.0 % Test CRC 3026E411 Copy CRC 3026E411 Track not present in AccurateRip database Copy OK

Track 15

Filename P:\Music\The Karate Kid (2010, FLAC) - James Horner\15 - From Master To Student To Master.wav

Peak level 100.0 % Track quality 100.0 % Test CRC F42BC0D1 Copy CRC F42BC0D1 Track not present in AccurateRip database Copy OK

Track 16

Filename P:\Music\The Karate Kid (2010, FLAC) - James Horner\16 - Dre’s Gift And Apology.wav

Peak level 20.8 % Track quality 100.0 % Test CRC 6F1DE5E8 Copy CRC 6F1DE5E8 Track not present in AccurateRip database Copy OK

Track 17

Filename P:\Music\The Karate Kid (2010, FLAC) - James Horner\17 - Tournament Time.wav

Peak level 100.0 % Track quality 99.9 % Test CRC 71870ED7 Copy CRC 71870ED7 Track not present in AccurateRip database Copy OK

Track 18

Filename P:\Music\The Karate Kid (2010, FLAC) - James Horner\18 - Final Contest.wav

Peak level 100.0 % Track quality 99.9 % Test CRC DFDEDE42 Copy CRC DFDEDE42 Track not present in AccurateRip database Copy OK

None of the tracks are present in the AccurateRip database

No errors occurred

End of status report
 
REM GENRE SoundtrackREM DATE 2010REM DISCID F20F1412REM COMMENT "ExactAudioCopy v0.99pb5"CATALOG 18010634235<6FILE "01 - Leaving Detroit.wav" WAVE TRACK 01 AUDIO ISRC 6046=2300640 INDEX 01 00:00:00FILE "02 - Looking For Mr. Han.wav" WAVE TRACK 02 AUDIO ISRC 6046=2300640 INDEX 01 00:00:00FILE "03 - Kung Fu Heaven.wav" WAVE TRACK 03 AUDIO ISRC 6046=2300640 INDEX 01 00:00:00FILE "04 - “I Want To Go Home” – The Forbidden City.wav" WAVE TRACK 04 AUDIO ISRC 6046=2300640 INDEX 01 00:00:00FILE "05 - The Lunchroom.wav" WAVE TRACK 05 AUDIO ISRC 6046=2300640 INDEX 01 00:00:00FILE "06 - Backstreet Beating.wav" WAVE TRACK 06 AUDIO ISRC 6046=2300640 INDEX 01 00:00:00FILE "07 - Han’s Kung Fu.wav" WAVE TRACK 07 AUDIO ISRC 6046=2300640 INDEX 01 00:00:00FILE "08 - Ancient Chinese Medicine.wav" WAVE TRACK 08 AUDIO ISRC 6046=2300640 INDEX 01 00:00:00FILE "09 - Beijing Valentine.wav" WAVE TRACK 09 AUDIO ISRC 6046=2300640 INDEX 01 00:00:00FILE "10 - Mei Ying’s Kiss.wav" WAVE TRACK 10 AUDIO ISRC 6046=2300640 INDEX 01 00:00:00FILE "11 - Jacket On, Jacket Off.wav" WAVE TRACK 11 AUDIO ISRC 6046=2300640 INDEX 01 00:00:00FILE "12 - Journey To The Spiritual Mountain.wav" WAVE TRACK 12 AUDIO ISRC 6046=2300640 INDEX 01 00:00:00FILE "13 - Hard Training.wav" WAVE TRACK 13 AUDIO ISRC 6046=2300640 INDEX 01 00:00:00FILE "14 - All Work And No Play.wav" WAVE TRACK 14 AUDIO ISRC 6046=2300640 INDEX 01 00:00:00FILE "15 - From Master To Student To Master.wav" WAVE TRACK 15 AUDIO ISRC 6046=2300640 INDEX 01 00:00:00FILE "16 - Dre’s Gift And Apology.wav" WAVE TRACK 16 AUDIO ISRC 6046=2300640 INDEX 01 00:00:00FILE "17 - Tournament Time.wav" WAVE TRACK 17 AUDIO ISRC 6046=2300640 INDEX 01 00:00:00FILE "18 - Final Contest.wav" WAVE TRACK 18 AUDIO ISRC 6046=2300640 INDEX 01 00:00:00
 
AUDIOCHECKER v2.0 beta (build 457) - by Dester - opdester@freemail.hu~~~~~~~~~~~~~~~~~~~~~~~~~~~~~~~~~~-=== DO NOT EDIT THIS FILE! ===-

Path: ...\The Karate Kid (2010, FLAC) - James Horner

01 -=- 01 - Leaving Detroit.flac -=- CDDA (100%)02 -=- 02 - Looking For Mr. Han.flac -=- CDDA (100%)03 -=- 03 - Kung Fu Heaven.flac -=- CDDA (100%)04 -=- 04 - “I Want To Go Home” – The Forbidden City.flac -=- CDDA (100%)05 -=- 05 - The Lunchroom.flac -=- CDDA (100%)06 -=- 06 - Backstreet Beating.flac -=- CDDA (100%)07 -=- 07 - Han’s Kung Fu.flac -=- CDDA (100%)08 -=- 08 - Ancient Chinese Medicine.flac -=- CDDA (100%)09 -=- 09 - Beijing Valentine.flac -=- CDDA (100%)10 -=- 10 - Mei Ying’s Kiss.flac -=- CDDA (100%)11 -=- 11 - Jacket On, Jacket Off.flac -=- CDDA (86%)12 -=- 12 - Journey To The Spiritual Mountain.flac -=- CDDA (100%)13 -=- 13 - Hard Training.flac -=- CDDA (100%)14 -=- 14 - All Work And No Play.flac -=- CDDA (100%)15 -=- 15 - From Master To Student To Master.flac -=- CDDA (100%)16 -=- 16 - Dre’s Gift And Apology.flac -=- CDDA (100%)17 -=- 17 - Tournament Time.flac -=- CDDA (100%)18 -=- 18 - Final Contest.flac -=- CDDA (99%)

Summary 99,17% CDDA

196937892



Трекер:  [ 19-Дек-2010 15:48 ]

  

Скачать .torrent

Размер .torrent файла 12 KB


Размер: 273 MB
Хэш (hash) релиза: dbeeb3ecae7ff8b75b6024a13ef762b28bf5c4cb

Торренты, похожие на Каратэ-пацан The Karate Kid скачать торрент

Форум Название Автор Размер S L Добавлен
Саундтреки к фильмам и мультфильмам (mp3) ·· (Score) Малыш-каратист (Каратэ-пацан) / The Karate Kid (by James Horner) - 2010, mp3, 320 kbps AqvaGen 159152508152 MB 0 0 1292265266

21:34

13-Дек-10

Rap, Hip-Hop, R'n'B (video) ·· Justin Bieber feat. Jaden Smith - Never Say Never (Клип к фильму "Каратэ-пацан" / OST "The Karate Kid") [2010 г., Pop, R&B, HDTVRip] dnickn 6148546859 MB 0 0 1297462907

01:21

12-Фев-11

bot

Топик был перенесен в форум Саундтреки к фильмам и мультфильмам (lossless)

Перенес AqvaGen

Хотите добавить комментарий к записи скачать торрент Каратэ-пацан The Karate Kid

!Обратная связь