Скачать через торрент музыку О, где же ты, брат? O Brother, Where Art Thou? - 2000, FLAC бесплатно без регистрации torrent

Если у вас наблюдаются проблемы со скриншотами, переходом по ссылками, скачиванием торрентов - проблемы в блокировщике рекламы AdBlock. #хорошегоДня!


Статистика раздачи
Размер:  299 MB   |    Зарегистрирован:  6 лет 5 месяцев   |    .torrent скачан:  37 раз   |   
Раздают:  1  
   
Загрузка...
 
Автор Сообщение

Galfimbul

avatar Galfimbul


О, где же ты, брат? / O Brother, Where Art Thou?



Жанр: Soundtrack
Год выпуска диска/фильма: 2000




Страна-производитель диска: United States
Издатель (лейбл): Mercury Records
Номер по каталогу: 170 069-2




Аудио кодек: FLAC (*.flac)
Тип рипа: tracks+.cue
Битрейт аудио: lossless
Продолжительность: 1:00:34
Источник: скачано с lztr.us
Наличие сканов в содержимом раздачи: да
01. James Carter & The Prisoners - Po Lazarus (4:31)
02. Harry McLintock - Big Rock Candy Mountain (2:18)
03. Norman Blake - You Are My Sunshine (4:28)
04. Alison Krauss - Down In The River To Pray (2:56)
05. Soggy Bottom Boys - I Am A Man Of Constant Sorrow (3:10)
06. Chris Thomas King - Hard Time Killing Floor Blues (2:42)
07. Norman Blake - Man Of Constant Sorrow (4:29)
08. Whites - Keep On The Sunny Side (3:34)
09. Gillian Welch & Alison Krauss - I'll Fly Away (3:58)
10. Gillian Welch, Alison Krauss & Emmylou Harris - Didn't Leave Nobody But The Baby (1:58)
11. Sarah, Hanna & Leah Peasall - In The Highways (1:36)
12. Cox Family - I Am Weary (Let Me Rest) (3:14)
13. John Hartford - I Am A Man Of Constant Sorrow (2:34)
14. Ralph Stanley - O Death (3:20)
15. Soggy Bottom Boys - In The Jailhouse Now (3:36)
16. Soggy Bottom Boys - I Am A Man Of Constant Sorrow (4:17)
17. John Hartford - Indian War Whoop (1:30)
18. Fairfield Four - Lonesome Valley (4:07)
19. Stanley Brothers - Angel Band (2:16)

 
Exact Audio Copy V0.99 prebeta 4 from 23. January 2008

EAC extraction logfile from 30. December 2008, 14:19

Various / O Brother, Where Art Thou?

Used drive : TSSTcorpCD/DVDW SH-S183L Adapter: 2 ID: 0

Read mode : SecureUtilize accurate stream : YesDefeat audio cache : YesMake use of C2 pointers : No

Read offset correction : 6Overread into Lead-In and Lead-Out : NoFill up missing offset samples with silence : YesDelete leading and trailing silent blocks : NoNull samples used in CRC calculations : YesUsed interface : Installed external ASPI interfaceGap handling : Appended to previous track

Used output format : User Defined EncoderSelected bitrate : 128 kBit/sQuality : HighAdd ID3 tag : NoCommand line compressor : C:\Program Files\Exact Audio Copy\Flac\flac.exeAdditional command line options : -V -8 -T "artist=%a" -T "title=%t" -T "album=%g" -T "date=%y" -T "tracknumber=%n" -T "genre=%m" %s

TOC of the extracted CD

Track | Start | Length | Start sector | End sector --------------------------------------------------------- 1 | 0:00.00 | 4:30.60 | 0 | 20309 2 | 4:30.60 | 2:17.52 | 20310 | 30636 3 | 6:48.37 | 4:27.45 | 30637 | 50706 4 | 11:16.07 | 2:55.73 | 50707 | 63904 5 | 14:12.05 | 3:10.00 | 63905 | 78154 6 | 17:22.05 | 2:42.32 | 78155 | 90336 7 | 20:04.37 | 4:29.30 | 90337 | 110541 8 | 24:33.67 | 3:34.23 | 110542 | 126614 9 | 28:08.15 | 3:57.65 | 126615 | 144454 10 | 32:06.05 | 1:57.60 | 144455 | 153289 11 | 34:03.65 | 1:36.10 | 153290 | 160499 12 | 35:40.00 | 3:14.20 | 160500 | 175069 13 | 38:54.20 | 2:34.10 | 175070 | 186629 14 | 41:28.30 | 3:19.45 | 186630 | 201599 15 | 44:48.00 | 3:36.07 | 201600 | 217806 16 | 48:24.07 | 4:16.73 | 217807 | 237079 17 | 52:41.05 | 1:30.32 | 237080 | 243861 18 | 54:11.37 | 4:07.13 | 243862 | 262399 19 | 58:18.50 | 2:15.62 | 262400 | 272586 20 | 63:06.37 | 3:01.43 | 283987 | 297604

Track 1

Filename C:\windows\profiles\mlapaglia\Desktop\O Brother, Where Art Thou\01 - Po Lazarus.wav

Pre-gap length 0:00:02.00

Peak level 98.8 % Track quality 100.0 % Test CRC 32CCA27F Copy CRC 32CCA27F Accurately ripped (confidence 200) [0FFEDA44] Copy OK

Track 2

Filename C:\windows\profiles\mlapaglia\Desktop\O Brother, Where Art Thou\02 - Big Rock Candy Mountain.wav

Peak level 98.8 % Track quality 100.0 % Test CRC 2D3DF006 Copy CRC 2D3DF006 Accurately ripped (confidence 200) [46E45C3C] Copy OK

Track 3

Filename C:\windows\profiles\mlapaglia\Desktop\O Brother, Where Art Thou\03 - You Are My Sunshine.wav

Pre-gap length 0:00:01.36

Peak level 78.5 % Track quality 100.0 % Test CRC 6943CDBC Copy CRC 6943CDBC Accurately ripped (confidence 200) [646F19E9] Copy OK

Track 4

Filename C:\windows\profiles\mlapaglia\Desktop\O Brother, Where Art Thou\04 - Down In The River To Pray.wav

Peak level 91.6 % Track quality 99.9 % Test CRC EDA2AE7B Copy CRC EDA2AE7B Accurately ripped (confidence 200) [8BBC9A21] Copy OK

Track 5

Filename C:\windows\profiles\mlapaglia\Desktop\O Brother, Where Art Thou\05 - I Am A Man Of Constant Sorrow.wav

Peak level 64.7 % Track quality 100.0 % Test CRC E43F9DA8 Copy CRC E43F9DA8 Accurately ripped (confidence 200) [19D32C1A] Copy OK

Track 6

Filename C:\windows\profiles\mlapaglia\Desktop\O Brother, Where Art Thou\06 - Hard Time Killing Floor Blues.wav

Peak level 75.3 % Track quality 100.0 % Test CRC E5AD3558 Copy CRC E5AD3558 Accurately ripped (confidence 200) [0D87288C] Copy OK

Track 7

Filename C:\windows\profiles\mlapaglia\Desktop\O Brother, Where Art Thou\07 - Man Of Constant Sorrow.wav

Peak level 62.5 % Track quality 100.0 % Test CRC 5B197512 Copy CRC 5B197512 Accurately ripped (confidence 200) [8BE7854F] Copy OK

Track 8

Filename C:\windows\profiles\mlapaglia\Desktop\O Brother, Where Art Thou\08 - Keep On The Sunny Side.wav

Peak level 74.1 % Track quality 100.0 % Test CRC 1EC128FD Copy CRC 1EC128FD Accurately ripped (confidence 200) [0A58215F] Copy OK

Track 9

Filename C:\windows\profiles\mlapaglia\Desktop\O Brother, Where Art Thou\09 - I'll Fly Away.wav

Peak level 74.2 % Track quality 100.0 % Test CRC 7246437D Copy CRC 7246437D Accurately ripped (confidence 200) [5F249986] Copy OK

Track 10

Filename C:\windows\profiles\mlapaglia\Desktop\O Brother, Where Art Thou\10 - Didn't Leave Nobody But The Baby.wav

Peak level 59.7 % Track quality 100.0 % Test CRC B98B8507 Copy CRC B98B8507 Accurately ripped (confidence 200) [B185C91D] Copy OK

Track 11

Filename C:\windows\profiles\mlapaglia\Desktop\O Brother, Where Art Thou\11 - In The Highways.wav

Peak level 60.9 % Track quality 100.0 % Test CRC 99BD29F1 Copy CRC 99BD29F1 Accurately ripped (confidence 200) [15489DC3] Copy OK

Track 12

Filename C:\windows\profiles\mlapaglia\Desktop\O Brother, Where Art Thou\12 - I Am Weary (Let Me Rest).wav

Peak level 67.7 % Track quality 99.9 % Test CRC D37E7203 Copy CRC D37E7203 Accurately ripped (confidence 200) [7241C0A0] Copy OK

Track 13

Filename C:\windows\profiles\mlapaglia\Desktop\O Brother, Where Art Thou\13 - I Am A Man Of Constant Sorrow.wav

Peak level 25.6 % Track quality 100.0 % Test CRC EB4FA27C Copy CRC EB4FA27C Accurately ripped (confidence 200) [7B64E9DD] Copy OK

Track 14

Filename C:\windows\profiles\mlapaglia\Desktop\O Brother, Where Art Thou\14 - O Death.wav

Peak level 48.7 % Track quality 100.0 % Test CRC DFAC328D Copy CRC DFAC328D Accurately ripped (confidence 200) [493E402C] Copy OK

Track 15

Filename C:\windows\profiles\mlapaglia\Desktop\O Brother, Where Art Thou\15 - In The Jailhouse Now.wav

Peak level 83.1 % Track quality 100.0 % Test CRC CB3857A9 Copy CRC CB3857A9 Accurately ripped (confidence 200) [9CE2F736] Copy OK

Track 16

Filename C:\windows\profiles\mlapaglia\Desktop\O Brother, Where Art Thou\16 - I Am A Man Of Constant Sorrow.wav

Peak level 83.1 % Track quality 100.0 % Test CRC B51F275A Copy CRC B51F275A Accurately ripped (confidence 200) [CCE21F58] Copy OK

Track 17

Filename C:\windows\profiles\mlapaglia\Desktop\O Brother, Where Art Thou\17 - Indian War Whoop.wav

Peak level 64.9 % Track quality 100.0 % Test CRC 6217D0B4 Copy CRC 6217D0B4 Accurately ripped (confidence 200) [9532D3A2] Copy OK

Track 18

Filename C:\windows\profiles\mlapaglia\Desktop\O Brother, Where Art Thou\18 - Lonesome Valley.wav

Peak level 98.8 % Track quality 100.0 % Test CRC 49E152E1 Copy CRC 49E152E1 Accurately ripped (confidence 200) [6230C7BD] Copy OK

Track 19

Filename C:\windows\profiles\mlapaglia\Desktop\O Brother, Where Art Thou\19 - Angel Band.wav

Peak level 59.9 % Track quality 99.9 % Test CRC FCCA5E21 Copy CRC FCCA5E21 Accurately ripped (confidence 197) [93337CAB] Copy OK

All tracks accurately ripped

No errors occurred

End of status report
 
REM GENRE BluegrassREM DATE 2000REM DISCID 0F0F8014REM COMMENT "ExactAudioCopy v0.99pb4"FILE "01 - Po Lazarus.wav" WAVE TRACK 01 AUDIO INDEX 01 00:00:00FILE "02 - Big Rock Candy Mountain.wav" WAVE TRACK 02 AUDIO INDEX 01 00:00:00 TRACK 03 AUDIO INDEX 00 02:16:25FILE "03 - You Are My Sunshine.wav" WAVE INDEX 01 00:00:00FILE "04 - Down In The River To Pray.wav" WAVE TRACK 04 AUDIO INDEX 01 00:00:00FILE "05 - I Am A Man Of Constant Sorrow.wav" WAVE TRACK 05 AUDIO INDEX 01 00:00:00FILE "06 - Hard Time Killing Floor Blues.wav" WAVE TRACK 06 AUDIO INDEX 01 00:00:00FILE "07 - Man Of Constant Sorrow.wav" WAVE TRACK 07 AUDIO INDEX 01 00:00:00FILE "08 - Keep On The Sunny Side.wav" WAVE TRACK 08 AUDIO INDEX 01 00:00:00FILE "09 - I'll Fly Away.wav" WAVE TRACK 09 AUDIO INDEX 01 00:00:00FILE "10 - Didn't Leave Nobody But The Baby.wav" WAVE TRACK 10 AUDIO INDEX 01 00:00:00FILE "11 - In The Highways.wav" WAVE TRACK 11 AUDIO INDEX 01 00:00:00FILE "12 - I Am Weary (Let Me Rest).wav" WAVE TRACK 12 AUDIO INDEX 01 00:00:00FILE "13 - I Am A Man Of Constant Sorrow.wav" WAVE TRACK 13 AUDIO INDEX 01 00:00:00FILE "14 - O Death.wav" WAVE TRACK 14 AUDIO INDEX 01 00:00:00FILE "15 - In The Jailhouse Now.wav" WAVE TRACK 15 AUDIO INDEX 01 00:00:00FILE "16 - I Am A Man Of Constant Sorrow.wav" WAVE TRACK 16 AUDIO INDEX 01 00:00:00FILE "17 - Indian War Whoop.wav" WAVE TRACK 17 AUDIO INDEX 01 00:00:00FILE "18 - Lonesome Valley.wav" WAVE TRACK 18 AUDIO INDEX 01 00:00:00FILE "19 - Angel Band.wav" WAVE TRACK 19 AUDIO INDEX 01 00:00:00
 
AUDIOCHECKER v2.0 beta (build 457) - by Dester - opdester@freemail.hu~~~~~~~~~~~~~~~~~~~~~~~~~~~~~~~~~~-=== DO NOT EDIT THIS FILE! ===-

Path: ...\O Brother, Where Art Thou [2002, EAC-CUE-LOG] - Various

01 -=- 01 - Po Lazarus.flac -=- CDDA (100%)02 -=- 02 - Big Rock Candy Mountain.flac -=- CDDA (99%)03 -=- 03 - You Are My Sunshine.flac -=- CDDA (99%)04 -=- 04 - Down In The River To Pray.flac -=- CDDA (100%)05 -=- 05 - I Am A Man Of Constant Sorrow.flac -=- CDDA (100%)06 -=- 06 - Hard Time Killing Floor Blues.flac -=- CDDA (100%)07 -=- 07 - Man Of Constant Sorrow.flac -=- CDDA (100%)08 -=- 08 - Keep On The Sunny Side.flac -=- CDDA (100%)09 -=- 09 - I'll Fly Away.flac -=- CDDA (100%)10 -=- 10 - Didn't Leave Nobody But The Baby.flac -=- CDDA (100%)11 -=- 11 - In The Highways.flac -=- CDDA (100%)12 -=- 12 - I Am Weary (Let Me Rest).flac -=- CDDA (100%)13 -=- 13 - I Am A Man Of Constant Sorrow.flac -=- CDDA (100%)14 -=- 14 - O Death.flac -=- CDDA (100%)15 -=- 15 - In The Jailhouse Now.flac -=- CDDA (100%)16 -=- 16 - I Am A Man Of Constant Sorrow.flac -=- CDDA (99%)17 -=- 17 - Indian War Whoop.flac -=- CDDA (100%)18 -=- 18 - Lonesome Valley.flac -=- CDDA (100%)19 -=- 19 - Angel Band.flac -=- CDDA (99%)

Summary 99,79% CDDA

231271300



Трекер:  [ 07-Июл-2011 22:43 ]

  

Скачать .torrent

Размер .torrent файла 13 KB


Размер: 299 MB
Хэш (hash) релиза: 9e084b9d385b66f407a8c20516a9a23e736d5eba

Еще никто не оставлял запись к записи скачать торрент О, где же ты, брат? O Brother, Where Art Thou? - 2000, FLAC . Будь первым!

!Обратная связь