Скачать через торрент музыку Chicago Чикаго - 2002, FLAC бесплатно без регистрации torrent

Если у вас наблюдаются проблемы со скриншотами, переходом по ссылками, скачиванием торрентов - проблемы в блокировщике рекламы AdBlock. #хорошегоДня!


Статистика раздачи
Размер:  430 MB   |    Зарегистрирован:  6 лет 9 месяцев   |    .torrent скачан:  52 раза   |   
Раздают:  1  
   
Загрузка...
 
Автор Сообщение

AqvaGen


Chicago / Чикаго


Жанр: Soundtrack
Год выпуска диска: 2002
Производитель диска: USA
Аудио кодек: FLAC
Тип рипа: tracks+.cue
Битрейт аудио: lossless
Продолжительность: 01:10:17



Треклист:

01. Overture - And All That Jazz (6:05)
Performed by Catherine Zeta-Jones, Renee Zellweger, Taye Diggs

02. Funny Honey (3:39)
Performed by Renee Zellweger, John C. Reilly & Colm Feore

03. When You're Good To Mama (3:20)
Performed by Queen Latifah

04. Cell Block Tango (7:23)
Performed by Catherine Zeta-Jones & Cast

05. All I Care About (3:48)
Performed by Richard Gere & Cast

06. We Both Reached For The Gun (4:00)
Performed by Richard Gere & Cast

07. Roxie (3:23)
Performed by Renee Zellweger

08. I Can't Do It Alone (3:52)
Performed by Catherine Zeta-Jones

09. Mister Cellophane (3:58)
Performed by Catherine Zeta-Jones

10. Razzle Dazzle (3:47)
Performed by Richard Gere & Cast

11. Class (2:55)
Performed by Richard Gere & Cast

12. Nowadays (Roxie) (2:15)
Performed by Renee Zellweger, Taye Diggs

13. Nowadays & Hot Honey Rag (3:28)
Performed by Renee Zellweger, Taye Diggs

14. I Move On (4:01)
Performed by Renee Zellweger, Taye Diggs

15. After Midnight (3:25)
Performed by Danny Elfman

16. Roxie's Suite (3:59)
Performed by Danny Elfman

17. Cell Block Tango (He Had It Comin') (3:40)
Performed by Queen Latifah & Lil' Kim Feat. Macy Gray

18. Love Is A Crime (3:21)
Performed by Anastacia
 
Exact Audio Copy V0.99 prebeta 4 from 23. January 2008

EAC extraction logfile from 21. March 2009, 15:42

Various / Chicago

Used drive : PLEXTOR DVDR PX-740A Adapter: 2 ID: 0

Read mode : SecureUtilize accurate stream : YesDefeat audio cache : YesMake use of C2 pointers : No

Read offset correction : 618Overread into Lead-In and Lead-Out : NoFill up missing offset samples with silence : YesDelete leading and trailing silent blocks : NoNull samples used in CRC calculations : YesUsed interface : Installed external ASPI interfaceGap handling : Appended to previous track

Used output format : User Defined EncoderSelected bitrate : 320 kBit/sQuality : HighAdd ID3 tag : NoCommand line compressor : C:\Program Files\Exact Audio Copy\Flac\flac.exeAdditional command line options : -V -8 -T "artist=%a" -T "title=%t" -T "album=%g" -T "date=%y" -T "tracknumber=%n" -T "genre=%m" %s

TOC of the extracted CD

Track | Start | Length | Start sector | End sector --------------------------------------------------------- 1 | 0:00.00 | 6:04.57 | 0 | 27356 2 | 6:04.57 | 3:39.15 | 27357 | 43796 3 | 9:43.72 | 3:19.63 | 43797 | 58784 4 | 13:03.60 | 7:22.47 | 58785 | 91981 5 | 20:26.32 | 3:48.15 | 91982 | 109096 6 | 24:14.47 | 3:59.40 | 109097 | 127061 7 | 28:14.12 | 3:22.40 | 127062 | 142251 8 | 31:36.52 | 3:51.48 | 142252 | 159624 9 | 35:28.25 | 3:57.70 | 159625 | 177469 10 | 39:26.20 | 3:47.20 | 177470 | 194514 11 | 43:13.40 | 2:54.70 | 194515 | 207634 12 | 46:08.35 | 2:14.50 | 207635 | 217734 13 | 48:23.10 | 3:28.35 | 217735 | 233369 14 | 51:51.45 | 4:00.47 | 233370 | 251416 15 | 55:52.17 | 3:24.70 | 251417 | 266786 16 | 59:17.12 | 3:58.38 | 266787 | 284674 17 | 63:15.50 | 3:40.05 | 284675 | 301179 18 | 66:55.55 | 3:20.60 | 301180 | 316239

Track 1

Filename D:\EACrips\01 - Catherine Zeta-Jones, Renee Zellweger, Taye Diggs - Overture - And All That Jazz.wav

Pre-gap length 0:00:02.00

Peak level 99.8 % Track quality 100.0 % Test CRC FC63C46B Copy CRC FC63C46B Accurately ripped (confidence 77) [B707A6C9] Copy OK

Track 2

Filename D:\EACrips\02 - Renee Zellweger, John C. Reilly & Colm Feore - Funny Honey.wav

Pre-gap length 0:00:02.70

Peak level 99.8 % Track quality 100.0 % Test CRC E3645D57 Copy CRC E3645D57 Accurately ripped (confidence 77) [0AAC7637] Copy OK

Track 3

Filename D:\EACrips\03 - Queen Latifah - When You're Good To Mama.wav

Pre-gap length 0:00:03.62

Peak level 99.8 % Track quality 100.0 % Test CRC AD192377 Copy CRC AD192377 Accurately ripped (confidence 79) [72EDEACB] Copy OK

Track 4

Filename D:\EACrips\04 - Catherine Zeta-Jones & Cast - Cell Block Tango.wav

Pre-gap length 0:00:03.17

Peak level 99.8 % Track quality 99.9 % Test CRC 21A63F8D Copy CRC 21A63F8D Accurately ripped (confidence 77) [92A0E45D] Copy OK

Track 5

Filename D:\EACrips\05 - Richard Gere & Cast - All I Care About.wav

Pre-gap length 0:00:03.62

Peak level 99.8 % Track quality 100.0 % Test CRC F4E1D7C3 Copy CRC F4E1D7C3 Accurately ripped (confidence 77) [63B3EEB1] Copy OK

Track 6

Filename D:\EACrips\06 - Richard Gere & Cast - We Both Reached For The Gun.wav

Pre-gap length 0:00:03.82

Peak level 99.8 % Track quality 100.0 % Test CRC 2A03BFEE Copy CRC 2A03BFEE Accurately ripped (confidence 77) [89168303] Copy OK

Track 7

Filename D:\EACrips\07 - Renee Zellweger - Roxie.wav

Pre-gap length 0:00:03.86

Peak level 99.8 % Track quality 100.0 % Test CRC FA97B48B Copy CRC FA97B48B Accurately ripped (confidence 78) [251086F5] Copy OK

Track 8

Filename D:\EACrips\08 - Catherine Zeta-Jones - I Can't Do It Alone.wav

Pre-gap length 0:00:03.22

Peak level 99.8 % Track quality 100.0 % Test CRC 6FAFB3ED Copy CRC 6FAFB3ED Accurately ripped (confidence 79) [BB4ADCD5] Copy OK

Track 9

Filename D:\EACrips\09 - Catherine Zeta-Jones - Mister Cellophane.wav

Pre-gap length 0:00:03.90

Peak level 99.8 % Track quality 100.0 % Test CRC 272D93EF Copy CRC 272D93EF Accurately ripped (confidence 78) [A8FB3F4D] Copy OK

Track 10

Filename D:\EACrips\10 - Richard Gere & Cast - Razzle Dazzle.wav

Pre-gap length 0:00:04.06

Peak level 86.9 % Track quality 100.0 % Test CRC 77AB3B1B Copy CRC 77AB3B1B Accurately ripped (confidence 79) [3306F8EF] Copy OK

Track 11

Filename D:\EACrips\11 - Richard Gere & Cast - Class.wav

Pre-gap length 0:00:03.81

Peak level 99.8 % Track quality 100.0 % Test CRC 2A01BC0F Copy CRC 2A01BC0F Accurately ripped (confidence 78) [00A0173C] Copy OK

Track 12

Filename D:\EACrips\12 - Renee Zellweger, Taye Diggs - Nowadays (Roxie).wav

Pre-gap length 0:00:02.58

Peak level 96.2 % Track quality 100.0 % Test CRC 354CB1EA Copy CRC 354CB1EA Accurately ripped (confidence 78) [D2AAE762] Copy OK

Track 13

Filename D:\EACrips\13 - Renee Zellweger, Taye Diggs - Nowadays & Hot Honey Rag.wav

Pre-gap length 0:00:02.72

Peak level 92.4 % Track quality 100.0 % Test CRC 70D56A71 Copy CRC 70D56A71 Accurately ripped (confidence 77) [2EB598C0] Copy OK

Track 14

Filename D:\EACrips\14 - Renee Zellweger, Taye Diggs - I Move On.wav

Pre-gap length 0:00:03.37

Peak level 99.8 % Track quality 100.0 % Test CRC ED96851F Copy CRC ED96851F Accurately ripped (confidence 78) [DB1FA9B3] Copy OK

Track 15

Filename D:\EACrips\15 - Danny Elfman - After Midnight.wav

Pre-gap length 0:00:03.88

Peak level 99.8 % Track quality 100.0 % Test CRC C390DF79 Copy CRC C390DF79 Accurately ripped (confidence 76) [76437EDC] Copy OK

Track 16

Filename D:\EACrips\16 - Danny Elfman - Roxie's Suite.wav

Pre-gap length 0:00:03.29

Peak level 99.8 % Track quality 100.0 % Test CRC 965E5A7C Copy CRC 965E5A7C Accurately ripped (confidence 16) [D487D641] Copy OK

Track 17

Filename D:\EACrips\17 - Queen Latifah & Lil' Kim Feat. Macy Gray - Cell Block Tango (He Had It Comin').wav

Pre-gap length 0:00:04.08

Peak level 92.8 % Track quality 100.0 % Test CRC 970177A1 Copy CRC 970177A1 Accurately ripped (confidence 17) [E3561775] Copy OK

Track 18

Filename D:\EACrips\18 - Anastacia - Love Is A Crime.wav

Pre-gap length 0:00:03.64

Peak level 99.8 % Track quality 100.0 % Test CRC 37F5C466 Copy CRC 37F5C466 Accurately ripped (confidence 17) [D288F428] Copy OK

All tracks accurately ripped

No errors occurred

End of status report
 
[Verification date: 24.08.2009 23:09:03][Disc ID: 0030fee5-027e02af-26107812]Track [ CRC ] Status 01 [b707a6c9] (107/109) Accurately ripped as in pressing(s) #1 02 [0aac7637] (107/110) Accurately ripped as in pressing(s) #1 03 [72edeacb] (109/112) Accurately ripped as in pressing(s) #1 04 [92a0e45d] (108/111) Accurately ripped as in pressing(s) #1 05 [63b3eeb1] (107/110) Accurately ripped as in pressing(s) #1 06 [89168303] (107/110) Accurately ripped as in pressing(s) #1 07 [251086f5] (108/111) Accurately ripped as in pressing(s) #1 08 [bb4adcd5] (109/112) Accurately ripped as in pressing(s) #1 09 [a8fb3f4d] (108/111) Accurately ripped as in pressing(s) #1 10 [3306f8ef] (108/111) Accurately ripped as in pressing(s) #1 11 [00a0173c] (108/111) Accurately ripped as in pressing(s) #1 12 [d2aae762] (107/110) Accurately ripped as in pressing(s) #1 13 [2eb598c0] (104/107) Accurately ripped as in pressing(s) #1 14 [db1fa9b3] (108/111) Accurately ripped as in pressing(s) #1 15 [76437edc] (106/109) Accurately ripped as in pressing(s) #1 16 [d487d641] (21/103) Accurately ripped as in pressing(s) #3 17 [e3561775] (22/102) Accurately ripped as in pressing(s) #3 18 [d288f428] (22/102) Accurately ripped as in pressing(s) #3

Track [ CRC32 ] [W/O NULL] [ LOG ] -- [8DECAEDF] [6AD2DF42] 01 [FC63C46B] [06C305A4] CRC32 02 [E3645D57] [62AFC797] CRC32 03 [AD192377] [436CA45C] CRC32 04 [21A63F8D] [C211375C] CRC32 05 [F4E1D7C3] [186C7C90] CRC32 06 [2A03BFEE] [1CCBADAF] CRC32 07 [FA97B48B] [7D720593] CRC32 08 [6FAFB3ED] [2A786BCD] CRC32 09 [272D93EF] [270DD75F] CRC32 10 [77AB3B1B] [65E3E4ED] CRC32 11 [2A01BC0F] [6283387F] CRC32 12 [354CB1EA] [1F1908A7] CRC32 13 [70D56A71] [F670AC3C] CRC32 14 [ED96851F] [14ED9609] CRC32 15 [C390DF79] [F706A85F] CRC32 16 [965E5A7C] [46F59D04] CRC32 17 [970177A1] [66F13E48] CRC32 18 [37F5C466] [FA3B30C6] CRC32

Enjoy!


Трекер:  [ 21-Дек-2010 15:06 ]

  

Скачать .torrent

Размер .torrent файла 19 KB


Размер: 430 MB
Хэш (hash) релиза: 154686f85a72b2265a4c62d2e6fd627c46e6247a

Торренты, похожие на Chicago Чикаго - 2002, FLAC скачать торрент

Форум Название Автор Размер S L Добавлен
Саундтреки к фильмам и мультфильмам (lossless) ·· (Soundtrack) Chicago / Чикаго (Русская версия) - 2002, FLAC (tracks+.cue), lossless Galfimbul 383886892366 MB 0 0 1292268711

22:31

13-Дек-10

bot

Топик был перенесен в форум Саундтреки к фильмам и мультфильмам (lossless)

Перенес AqvaGen

Mos

:!: Обложка не отображается.

AqvaGen

Перезалил

Хотите добавить комментарий к записи скачать торрент Chicago Чикаго - 2002, FLAC

!Обратная связь