Скачать через торрент музыку Заводной апельсин A Clockwork Orange бесплатно без регистрации torrent

Если у вас наблюдаются проблемы со скриншотами, переходом по ссылками, скачиванием торрентов - проблемы в блокировщике рекламы AdBlock. #хорошегоДня!


Статистика раздачи
Размер:  240 MB   |    Зарегистрирован:  6 лет 2 месяца   |    .torrent скачан:  60 раз   |   
Раздают:  1  
   
Загрузка...
 
Автор Сообщение

Galfimbul

avatar Galfimbul


Various Artists (VA) - A Clockwork Orange


Исполнитель: Various Artists (VA)
Альбом: A Clockwork Orange
Дата выпуска: 1972
Производитель: Germany
Жанр: Soundtrack, Classical, Electronic
Стиль: Neo-Classical, Modern Classical, Experimental
Формат: FLAC (tracks)
Битрейт: 564-829 kbps
Продолжительность: 00:46:21
Источник: what

Треклист:
01. Henry Purcell - Title Music from A Clockwork Orange [00:02:27]
02. Rossini - The Thieving Magpie (Abridged) [00:05:56]
03. Walter Carlos and Rachel Elkind - Theme from A Clockwork Orange (Beethoviana) [00:01:48]
04. Beethoven - Ninth Symphony, Second Movement (Abridged) [00:03:51]
05. Beethoven - March from A Clockwork Orange (Ninth Symphony, Fourth Movement, Abridged) [00:07:07]
06. Rossini - William Tell Overture (Abridged) [00:01:20]
07. Elgar - Pomp And Circumstance March No. I [00:04:35]
08. Elgar - Pomp And Circumstance March No. IV (Abridged) [00:01:38]
09. Walter Carlos - Timesteps (Excerpt) [00:04:18]
10. Terry Tucker - Overture To The Sun [00:01:46]
11. Erika Eigen - I Want To Marry A Lighthouse Keeper [00:01:04]
12. Rossini - William Tell Overture (Abridged) [00:03:01]
13. Beethoven - Suicide Scherzo (Ninth Symphony, Second Movement, Abridged) [00:03:09]
14. Beethoven - Ninth Symphony, Fourth Movement (Abridged) [00:01:38]
15. Gene Kelly - Singin' In The Rain [00:02:37]
 
Exact Audio Copy V0.99 prebeta 3 from 28. July 2007

EAC extraction logfile from 3. December 2007, 21:49

Various / A Clockwork Orange

Used drive : HL-DT-STDVD-RAM GSA-H20L Adapter: 2 ID: 0

Read mode : SecureUtilize accurate stream : YesDefeat audio cache : YesMake use of C2 pointers : No

Read offset correction : 102Overread into Lead-In and Lead-Out : NoFill up missing offset samples with silence : YesDelete leading and trailing silent blocks : NoNull samples used in CRC calculations : YesUsed interface : Installed external ASPI interfaceGap handling : Appended to previous track

Used output format : User Defined EncoderSelected bitrate : 192 kBit/sQuality : HighAdd ID3 tag : NoCommand line compressor : C:\Programme\Exact Audio Copy\flac.exe.Additional command line options : -8 -A tukey(0.25) -A gauss(0.1875) -b 4096 -V -T "artist=%a" -T "title=%t" -T "album=%g" -T "date=%y" -T "tracknumber=%n" -T "genre=%m" %s --sector-align

TOC of the extracted CD

Track | Start | Length | Start sector | End sector --------------------------------------------------------- 1 | 0:00.00 | 2:27.30 | 0 | 11054 2 | 2:27.30 | 5:56.25 | 11055 | 37779 3 | 8:23.55 | 1:48.50 | 37780 | 45929 4 | 10:12.30 | 3:51.15 | 45930 | 63269 5 | 14:03.45 | 7:07.42 | 63270 | 95336 6 | 21:11.12 | 1:20.03 | 95337 | 101339 7 | 22:31.15 | 4:35.12 | 101340 | 121976 8 | 27:06.27 | 1:38.18 | 121977 | 129344 9 | 28:44.45 | 4:18.22 | 129345 | 148716 10 | 33:02.67 | 1:46.55 | 148717 | 156721 11 | 34:49.47 | 1:04.28 | 156722 | 161549 12 | 35:54.00 | 3:01.72 | 161550 | 175196 13 | 38:55.72 | 3:09.35 | 175197 | 189406 14 | 42:05.32 | 1:38.63 | 189407 | 196819 15 | 43:44.20 | 2:37.05 | 196820 | 208599

Track 1

Filename D:\musica\Misc\V.A. - A Clockwork Orange\01 - Henry Purcell - Title Music from A Clockwork Orange.wav

Pre-gap length 0:00:02.00

Peak level 71.2 % Track quality 99.9 % Test CRC AF391A8C Copy CRC AF391A8C Copy OK

Track 2

Filename D:\musica\Misc\V.A. - A Clockwork Orange\02 - Rossini - The Thieving Magpie (Abridged).wav

Pre-gap length 0:00:04.53

Peak level 81.2 % Track quality 100.0 % Test CRC A9380E83 Copy CRC A9380E83 Copy OK

Track 3

Filename D:\musica\Misc\V.A. - A Clockwork Orange\03 - Walter Carlos and Rachel Elkind - Theme from A Clockwork Orange (Beethoviana).wav

Pre-gap length 0:00:03.60

Peak level 64.2 % Track quality 100.0 % Test CRC E0C43FF3 Copy CRC E0C43FF3 Copy OK

Track 4

Filename D:\musica\Misc\V.A. - A Clockwork Orange\04 - Beethoven - Ninth Symphony, Second Movement (Abridged).wav

Pre-gap length 0:00:03.64

Peak level 90.1 % Track quality 100.0 % Test CRC E558BC0C Copy CRC E558BC0C Copy OK

Track 5

Filename D:\musica\Misc\V.A. - A Clockwork Orange\05 - Beethoven - March from A Clockwork Orange (Ninth Symphony, Fourth Movement, Abridged).wav

Pre-gap length 0:00:01.64

Peak level 89.6 % Track quality 100.0 % Test CRC 36D9C920 Copy CRC 36D9C920 Copy OK

Track 6

Filename D:\musica\Misc\V.A. - A Clockwork Orange\06 - Rossini - William Tell Overture (Abridged).wav

Pre-gap length 0:00:05.16

Peak level 93.1 % Track quality 99.8 % Test CRC A80F24DA Copy CRC A80F24DA Copy OK

Track 7

Filename D:\musica\Misc\V.A. - A Clockwork Orange\07 - Elgar - Pomp And Circumstance March No. I.wav

Pre-gap length 0:00:03.06

Peak level 93.2 % Track quality 100.0 % Test CRC 8429B16E Copy CRC 8429B16E Copy OK

Track 8

Filename D:\musica\Misc\V.A. - A Clockwork Orange\08 - Elgar - Pomp And Circumstance March No. IV (Abridged).wav

Pre-gap length 0:00:03.66

Peak level 84.1 % Track quality 100.0 % Test CRC 574D90AD Copy CRC 574D90AD Copy OK

Track 9

Filename D:\musica\Misc\V.A. - A Clockwork Orange\09 - Walter Carlos - Timesteps (Excerpt).wav

Pre-gap length 0:00:03.70

Peak level 90.0 % Track quality 100.0 % Test CRC 0F65BC51 Copy CRC 0F65BC51 Copy OK

Track 10

Filename D:\musica\Misc\V.A. - A Clockwork Orange\10 - Terry Tucker - Overture To The Sun.wav

Pre-gap length 0:00:04.62

Peak level 87.1 % Track quality 100.0 % Test CRC 4E328B4D Copy CRC 4E328B4D Copy OK

Track 11

Filename D:\musica\Misc\V.A. - A Clockwork Orange\11 - Erika Eigen - I Want To Marry A Lighthouse Keeper.wav

Pre-gap length 0:00:04.06

Peak level 59.7 % Track quality 100.0 % Test CRC 595EBB30 Copy CRC 595EBB30 Copy OK

Track 12

Filename D:\musica\Misc\V.A. - A Clockwork Orange\12 - Rossini - William Tell Overture (Abridged).wav

Pre-gap length 0:00:02.80

Peak level 16.5 % Track quality 99.9 % Test CRC 6D205597 Copy CRC 6D205597 Copy OK

Track 13

Filename D:\musica\Misc\V.A. - A Clockwork Orange\13 - Beethoven - Suicide Scherzo (Ninth Symphony, Second Movement, Abridged).wav

Pre-gap length 0:00:01.26

Peak level 88.7 % Track quality 100.0 % Test CRC A745388E Copy CRC A745388E Copy OK

Track 14

Filename D:\musica\Misc\V.A. - A Clockwork Orange\14 - Beethoven - Ninth Symphony, Fourth Movement (Abridged).wav

Pre-gap length 0:00:02.66

Peak level 72.5 % Track quality 100.0 % Test CRC F6EC3FB9 Copy CRC F6EC3FB9 Copy OK

Track 15

Filename D:\musica\Misc\V.A. - A Clockwork Orange\15 - Gene Kelly - Singin' In The Rain.wav

Pre-gap length 0:00:03.64

Peak level 76.5 % Track quality 99.9 % Test CRC 249073B8 Copy CRC 249073B8 Copy OK

No errors occurred

End of status report


Трекер:  [ 07-Июл-2011 22:47 ]

  

Скачать .torrent

Размер .torrent файла 11 KB


Размер: 240 MB
Хэш (hash) релиза: 5069c3558abb8f6680701088c03efa8a997059ed

Торренты, похожие на Заводной апельсин A Clockwork Orange скачать торрент

Форум Название Автор Размер S L Добавлен
Саундтреки к фильмам и мультфильмам (mp3) ·· (Soundtrack) Заводной апельсин / A Clockwork Orange (Walter Carlos & VA) - 1972, mp3, 320 kbps Galfimbul 111297949106 MB 0 0 1292265548

21:39

13-Дек-10

Еще никто не оставлял запись к записи скачать торрент Заводной апельсин A Clockwork Orange . Будь первым!

!Обратная связь