VA - The Sopranos - Peppers And Eggs torrent

, , - AdBlock. #!


602 MB   |    :  6 2    |    .torrent :  71    |   
1  
   
...
 

Galfimbul

avatar Galfimbul


The Sopranos - Peppers And Eggs (Music From The HBO Original Series)

: Soundtrack
: 2001
: Sony, C2K 85453
: FLAC
: tracks+.cue
: lossless
: 50:41 (Disc 1), 52:12 (Disc 2)

:

Disc One:
01. The Police & Henry Mancini - Every Breath You Take - Theme From Peter Gunn (Mr. Ruggerio's Remix) (2:31)
02. Pigeonhead - Battle Flag (5:59)
03. The Campbell Brothers with Katie Jackson - I've Got A Feeling (3:57)
04. Kasey Chambers - The Captain (4:32)
05. R.L. Burnside - Shuck Dub (4:28)
06. The Lost Boys - Affection (4:19)
07. Otis Redding - My Lover's Prayer (3:12)
08. Madreblu - Certamante (3:37)
09. Nils Lofgren - Black Books (5:28)
10. Cake - Frank Sinatra (4:02)
11. Frank Sinatra - Baubles, Bangles and Beads (2:35)
12. The Rolling Stones - Thru and Thru (6:02)

Disc Two:
01. Elvis Costello & The Attractions - High Fidelity (2:28)
02. Kinks - Living on a Thin Line (4:12)
03. Vue - Girl (4:43)
04. Cecilia Bartoli - Vivaldi: Sposa son disprezzata (5:50)
05. Ben E. King - I Who Have Nothing (2:30)
06. Bob Dylan - Return To Me (2:22)
07. Keith Richards - Make No Mistake (6:30)
08. Lorenzo Jovanotti - Piove (3:20)
09. Pretenders - Space Invader (3:29)
10. Tindersticks - Tiny Tears (5:47)
11. Van Morrison - Gloria (2:37)
12. Dominic Chianese - Core 'ngrato (3:04)
13. Sopranos - Dialogue From 'The Sopranos' (5:18)

:

EAC extraction logfile from 16. July 2007, 22:40 for CD
Various / Sopranos Peppers & Eggs (Disc 1)

Used drive : LITE-ON DVDRW SHM-165P6S Adapter: 4 ID: 1
Read mode : Secure with NO C2, accurate stream, disable cache
Read offset correction : 6
Overread into Lead-In and Lead-Out : No

Used output format : C:\Program Files\FLAC\flac.exe (User Defined Encoder)
128 kBit/s
Additional command line options : -V -8 -T "artist=%a" -T "title=%t" -T "album=%g" -T "date=%y" -T "tracknumber=%n" -T "genre=%m" %s

Other options :
Fill up missing offset samples with silence : Yes
Delete leading and trailing silent blocks : No
Installed external ASPI interface

Track 1
Filename C:\Documents and Settings\Administrator\Desktop\The Sopranos - Peppers Ans Eggs - Music From The HBO Original Series (2001) [FLAC\01 - Every Breath You Take - Theme From Peter Gunn (Mr. Ruggerio's Remix).wav

Pre-gap length 0:00:02.00

Peak level 89.0 %
Track quality 100.0 %
Test CRC 7E520C31
Copy CRC 7E520C31
Copy OK

Track 2
Filename C:\Documents and Settings\Administrator\Desktop\The Sopranos - Peppers Ans Eggs - Music From The HBO Original Series (2001) [FLAC\02 - Battle Flag.wav

Peak level 99.8 %
Track quality 100.0 %
Test CRC 0FADC1B4
Copy CRC 0FADC1B4
Copy OK

Track 3
Filename C:\Documents and Settings\Administrator\Desktop\The Sopranos - Peppers Ans Eggs - Music From The HBO Original Series (2001) [FLAC\03 - I've Got A Feeling.wav

Pre-gap length 0:00:01.56

Peak level 96.5 %
Track quality 99.9 %
Test CRC C1E11B0D
Copy CRC C1E11B0D
Copy OK

Track 4
Filename C:\Documents and Settings\Administrator\Desktop\The Sopranos - Peppers Ans Eggs - Music From The HBO Original Series (2001) [FLAC\04 - The Captain.wav

Peak level 77.5 %
Track quality 100.0 %
Test CRC 73B281AD
Copy CRC 73B281AD
Copy OK

Track 5
Filename C:\Documents and Settings\Administrator\Desktop\The Sopranos - Peppers Ans Eggs - Music From The HBO Original Series (2001) [FLAC\05 - Shuck Dub.wav

Peak level 72.3 %
Track quality 100.0 %
Test CRC ECE221D8
Copy CRC ECE221D8
Copy OK

Track 6
Filename C:\Documents and Settings\Administrator\Desktop\The Sopranos - Peppers Ans Eggs - Music From The HBO Original Series (2001) [FLAC\06 - Affection.wav

Peak level 66.7 %
Track quality 100.0 %
Test CRC 94940AC4
Copy CRC 94940AC4
Copy OK

Track 7
Filename C:\Documents and Settings\Administrator\Desktop\The Sopranos - Peppers Ans Eggs - Music From The HBO Original Series (2001) [FLAC\07 - My Lover's Prayer.wav

Peak level 91.1 %
Track quality 100.0 %
Test CRC B2EE3853
Copy CRC B2EE3853
Copy OK

Track 8
Filename C:\Documents and Settings\Administrator\Desktop\The Sopranos - Peppers Ans Eggs - Music From The HBO Original Series (2001) [FLAC\08 - Certamante.wav

Pre-gap length 0:00:01.22

Peak level 86.9 %
Track quality 100.0 %
Test CRC 165FD306
Copy CRC 165FD306
Copy OK

Track 9
Filename C:\Documents and Settings\Administrator\Desktop\The Sopranos - Peppers Ans Eggs - Music From The HBO Original Series (2001) [FLAC\09 - Black Books.wav

Pre-gap length 0:00:01.56

Peak level 88.0 %
Track quality 100.0 %
Test CRC 1CD0B826
Copy CRC 1CD0B826
Copy OK

Track 10
Filename C:\Documents and Settings\Administrator\Desktop\The Sopranos - Peppers Ans Eggs - Music From The HBO Original Series (2001) [FLAC\10 - Frank Sinatra.wav

Pre-gap length 0:00:01.36

Peak level 81.1 %
Track quality 100.0 %
Test CRC 9205ABF0
Copy CRC 9205ABF0
Copy OK

Track 11
Filename C:\Documents and Settings\Administrator\Desktop\The Sopranos - Peppers Ans Eggs - Music From The HBO Original Series (2001) [FLAC\11 - Baubles, Bangles and Beads.wav

Peak level 90.0 %
Track quality 100.0 %
Test CRC BAA1C9DB
Copy CRC BAA1C9DB
Copy OK

Track 12
Filename C:\Documents and Settings\Administrator\Desktop\The Sopranos - Peppers Ans Eggs - Music From The HBO Original Series (2001) [FLAC\12 - Thru and Thru.wav

Pre-gap length 0:00:01.40

Peak level 90.0 %
Track quality 100.0 %
Test CRC 265D1955
Copy CRC 265D1955
Copy OK

No errors occured

End of status report

:

EAC extraction logfile from 17. July 2007, 6:15 for CD
Various / Sopranos Peppers & Eggs (Disc 2)

Used drive : LITE-ON DVDRW SHM-165P6S Adapter: 4 ID: 1
Read mode : Secure with NO C2, accurate stream, disable cache
Read offset correction : 6
Overread into Lead-In and Lead-Out : No

Used output format : C:\Program Files\FLAC\flac.exe (User Defined Encoder)
128 kBit/s
Additional command line options : -V -8 -T "artist=%a" -T "title=%t" -T "album=%g" -T "date=%y" -T "tracknumber=%n" -T "genre=%m" %s

Other options :
Fill up missing offset samples with silence : Yes
Delete leading and trailing silent blocks : No
Installed external ASPI interface

Track 1
Filename C:\Documents and Settings\Administrator\Desktop\The Sopranos - Peppers Ans Eggs - Music From The HBO Original Series (2001) [FLAC\Disc Two\01 - High Fidelity.wav

Pre-gap length 0:00:02.00

Peak level 96.5 %
Track quality 100.0 %
Test CRC 0A848DB2
Copy CRC 0A848DB2
Copy OK

Track 2
Filename C:\Documents and Settings\Administrator\Desktop\The Sopranos - Peppers Ans Eggs - Music From The HBO Original Series (2001) [FLAC\Disc Two\02 - Living on a Thin Line.wav

Pre-gap length 0:00:01.53

Peak level 86.0 %
Track quality 100.0 %
Test CRC 533D331E
Copy CRC 533D331E
Copy OK

Track 3
Filename C:\Documents and Settings\Administrator\Desktop\The Sopranos - Peppers Ans Eggs - Music From The HBO Original Series (2001) [FLAC\Disc Two\03 - Girl.wav

Pre-gap length 0:00:01.40

Peak level 96.5 %
Track quality 100.0 %
Test CRC 1777FAC4
Copy CRC 1777FAC4
Copy OK

Track 4
Filename C:\Documents and Settings\Administrator\Desktop\The Sopranos - Peppers Ans Eggs - Music From The HBO Original Series (2001) [FLAC\Disc Two\04 - Vivaldi- Sposa son disprezzata.wav

Peak level 96.5 %
Track quality 100.0 %
Test CRC 8A6F6804
Copy CRC 8A6F6804
Copy OK

Track 5
Filename C:\Documents and Settings\Administrator\Desktop\The Sopranos - Peppers Ans Eggs - Music From The HBO Original Series (2001) [FLAC\Disc Two\05 - I Who Have Nothing.wav

Peak level 96.5 %
Track quality 100.0 %
Test CRC 0784CFC8
Copy CRC 0784CFC8
Copy OK

Track 6
Filename C:\Documents and Settings\Administrator\Desktop\The Sopranos - Peppers Ans Eggs - Music From The HBO Original Series (2001) [FLAC\Disc Two\06 - Return To Me.wav

Peak level 96.5 %
Track quality 100.0 %
Test CRC 6DA6F3E2
Copy CRC 6DA6F3E2
Copy OK

Track 7
Filename C:\Documents and Settings\Administrator\Desktop\The Sopranos - Peppers Ans Eggs - Music From The HBO Original Series (2001) [FLAC\Disc Two\07 - Make No Mistake.wav

Pre-gap length 0:00:02.77

Peak level 96.5 %
Track quality 100.0 %
Test CRC BA10214B
Copy CRC BA10214B
Copy OK

Track 8
Filename C:\Documents and Settings\Administrator\Desktop\The Sopranos - Peppers Ans Eggs - Music From The HBO Original Series (2001) [FLAC\Disc Two\08 - Piove.wav

Peak level 91.1 %
Track quality 100.0 %
Test CRC 1381E054
Copy CRC 1381E054
Copy OK

Track 9
Filename C:\Documents and Settings\Administrator\Desktop\The Sopranos - Peppers Ans Eggs - Music From The HBO Original Series (2001) [FLAC\Disc Two\09 - Space Invader.wav

Peak level 96.5 %
Track quality 100.0 %
Test CRC 49ABC7A3
Copy CRC 49ABC7A3
Copy OK

Track 10
Filename C:\Documents and Settings\Administrator\Desktop\The Sopranos - Peppers Ans Eggs - Music From The HBO Original Series (2001) [FLAC\Disc Two\10 - Tiny Tears.wav

Pre-gap length 0:00:01.57

Peak level 96.5 %
Track quality 100.0 %
Test CRC 69CF4C56
Copy CRC 69CF4C56
Copy OK

Track 11
Filename C:\Documents and Settings\Administrator\Desktop\The Sopranos - Peppers Ans Eggs - Music From The HBO Original Series (2001) [FLAC\Disc Two\11 - Gloria.wav

Peak level 96.4 %
Track quality 100.0 %
Test CRC 17C63AAF
Copy CRC 17C63AAF
Copy OK

Track 12
Filename C:\Documents and Settings\Administrator\Desktop\The Sopranos - Peppers Ans Eggs - Music From The HBO Original Series (2001) [FLAC\Disc Two\12 - Core 'ngrato.wav

Peak level 91.1 %
Track quality 100.0 %
Test CRC 9C425EFC
Copy CRC 9C425EFC
Copy OK

Track 13
Filename C:\Documents and Settings\Administrator\Desktop\The Sopranos - Peppers Ans Eggs - Music From The HBO Original Series (2001) [FLAC\Disc Two\13 - Dialogue From 'The Sopranos'.wav

Peak level 96.5 %
Track quality 99.9 %
Test CRC 3C1B623B
Copy CRC 3C1B623B
Copy OK

No errors occured

End of status report


 ·  , , FAQ-
:  [ 07--2011 22:48 ]

  

.torrent

.torrent 28 KB


: 602 MB
(hash) : a531a084c840dceeb29c87eb0fee140990322a77
··
...

VA - The Sopranos - Peppers And Eggs . !

!