Скачать через торрент музыку Пираты карибского моря: Сундук мертвеца Pirates Of The Caribbean: Dead Mans Chest - Remixes бесплатно без регистрации torrent

Если у вас наблюдаются проблемы со скриншотами, переходом по ссылками, скачиванием торрентов - проблемы в блокировщике рекламы AdBlock. #хорошегоДня!


Статистика раздачи
Размер:  168 MB   |    Зарегистрирован:  6 лет 2 месяца   |    .torrent скачан:  63 раза   |   
Раздают:  1  
   
Загрузка...
 
Автор Сообщение

Galfimbul

avatar Galfimbul


Pirates Of The Caribbean: Dead Man's Chest - Remixes (Including Tiesto Remix)

Жанр: Score / Trance
Год выпуска диска: 2006
Производитель диска / Label: Made in the EU / EMI Records Ltd.
Аудио кодек: FLAC
Тип рипа: tracks+.cue
Битрейт аудио: lossless
Продолжительность: 00:24:21

Трэклист:
01. He's A Pirate (Tiesto Radio Edit) [0:04:08.66]
02. He's A Pirate (Tiesto Remix) [0:07:04.46]
03. He's A Pirate (Tiesto Orchestral Remix) [0:07:03.70]
04. Jack Theme Suite (New Score Cue from of the Caribbean Dead Man's Chest) [0:06:04.36]
 
Exact Audio Copy V0.99 prebeta 4 from 23. January 2008

Отчёт EAC об извлечении, выполненном 12. мая 2010, 19:01

Pirates Of The Caribbean / Dead Man's Chest - Remixes

Дисковод: TSSTcorpCD/DVDW TS-L632D Adapter: 0 ID: 0

Режим чтения : ДостоверностьИспользование точного потока : ДаОтключение кэша аудио : ДаИспользование указателей C2 : Нет

Коррекция смещения при чтении : 6Способность читать области Lead-in и Lead-out : НетЗаполнение пропущенных сэмплов тишиной : ДаУдаление блоков с тишиной в начале и конце : НетПри вычислениях CRC использовались нулевые сэмплы : ДаИнтерфейс : Встроенный Win32-интерфейс для Win NT/2000Обработка зазоров : Добавлено к предыдущему треку

Выходной формат : Пользовательский кодировщикВыбранный битрейт : 768 kBit/sКачество : ВысокийДобавление ID3-тэга : НетУтилита сжатия : C:\Program Files\Exact Audio Copy\FLAC\FLAC.EXEДополнительные параметры : -8 -V -T "ARTIST=%a" -T "TITLE=%t" -T "ALBUM=%g" -T "DATE=%y" -T "TRACKNUMBER=%n" -T "GENRE=%m" -T "COMMENT=EAC FLAC -8" %s

TOC извлечённого CD

Трек | Старт | Длительность | Начальный сектор | Конечный сектор --------------------------------------------------------------------- 1 | 0:00.00 | 4:08.50 | 0 | 18649 2 | 4:08.50 | 7:04.35 | 18650 | 50484 3 | 11:13.10 | 7:03.53 | 50485 | 82262 4 | 18:16.63 | 6:04.27 | 82263 | 109589

Трек 1

Имя файла D:\Torrents\Music Torrents\Pirates Of The Caribbean - Dead Man's Chest - Remixes (Including Tiesto Remix) 2006\01. Pirates Of The Caribbean - He's A Pirate (Tiesto Radio Edit).wav

Длина предзазора 0:00:02.00

Пиковый уровень 90.1 % Качество трека 100.0 % CRC теста 4A74F2CB CRC копии 4A74F2CB Точность не определена (достоверность 4) [BA4D2169], AccurateRip вернул [F82077DF] Копирование... OK

Трек 2

Имя файла D:\Torrents\Music Torrents\Pirates Of The Caribbean - Dead Man's Chest - Remixes (Including Tiesto Remix) 2006\02. Pirates Of The Caribbean - He's A Pirate (Tiesto Remix).wav

Пиковый уровень 80.3 % Качество трека 100.0 % CRC теста 49DCD1F3 CRC копии 49DCD1F3 Точность не определена (достоверность 5) [26996300], AccurateRip вернул [5C08F6C2] Копирование... OK

Трек 3

Имя файла D:\Torrents\Music Torrents\Pirates Of The Caribbean - Dead Man's Chest - Remixes (Including Tiesto Remix) 2006\03. Pirates Of The Caribbean - He's A Pirate (Tiesto Orchestral Remix).wav

Пиковый уровень 90.1 % Качество трека 99.9 % CRC теста 2D483528 CRC копии 2D483528 Точность не определена (достоверность 4) [339AEC1E], AccurateRip вернул [43216342] Копирование... OK

Трек 4

Имя файла D:\Torrents\Music Torrents\Pirates Of The Caribbean - Dead Man's Chest - Remixes (Including Tiesto Remix) 2006\04. Pirates Of The Caribbean - Jack Theme Suite (New Score Cue from of the Caribbean Dead Man's Chest).wav

Пиковый уровень 95.5 % Качество трека 100.0 % CRC теста D5AAA771 CRC копии D5AAA771 Точность не определена (достоверность 4) [983FDEC5], AccurateRip вернул [7841DD8C] Копирование... OK

Ни один трек не прошёл проверки на точностьВ вашей базе может быть иной вариант штамповки диска

Ошибок не произошло

Конец отчёта
 
REM GENRE HouseREM DATE 2006REM DISCID 2D05B504REM COMMENT "ExactAudioCopy v0.99pb4"PERFORMER "Pirates Of The Caribbean"TITLE "Dead Man's Chest - Remixes"FILE "01. Pirates Of The Caribbean - He's A Pirate (Tiesto Radio Edit).wav" WAVE TRACK 01 AUDIO TITLE "He's A Pirate (Tiesto Radio Edit)" PERFORMER "Pirates Of The Caribbean" FLAGS DCP INDEX 01 00:00:00FILE "02. Pirates Of The Caribbean - He's A Pirate (Tiesto Remix).wav" WAVE TRACK 02 AUDIO TITLE "He's A Pirate (Tiesto Remix)" PERFORMER "Pirates Of The Caribbean" FLAGS DCP INDEX 01 00:00:00FILE "03. Pirates Of The Caribbean - He's A Pirate (Tiesto Orchestral Remix).wav" WAVE TRACK 03 AUDIO TITLE "He's A Pirate (Tiesto Orchestral Remix)" PERFORMER "Pirates Of The Caribbean" FLAGS DCP INDEX 01 00:00:00FILE "04. Pirates Of The Caribbean - Jack Theme Suite (New Score Cue from of the Caribbean Dead Man's Chest).wav" WAVE TRACK 04 AUDIO TITLE "Jack Theme Suite (New Score Cue from of the Caribbean Dead Man's Chest)" PERFORMER "Pirates Of The Caribbean" FLAGS DCP INDEX 01 00:00:00
Взято не откуда-нибудь, где-нибудь или у кого-нибудь. Рип сделан со своего, купленного за свои честно заработанные, диска.


Трекер:  [ 07-Июл-2011 22:48 ]

  

Скачать .torrent

Размер .torrent файла 14 KB


Размер: 168 MB
Хэш (hash) релиза: de5be70497f72077396c14e2dbba26ea9475e357

Еще никто не оставлял запись к записи скачать торрент Пираты карибского моря: Сундук мертвеца Pirates Of The Caribbean: Dead Mans Chest - Remixes . Будь первым!

!Обратная связь