Скачать через торрент музыку Andrew Lloyd Webber - The Phantom of the Opera - 2004, FLAC бесплатно без регистрации torrent

Если у вас наблюдаются проблемы со скриншотами, переходом по ссылками, скачиванием торрентов - проблемы в блокировщике рекламы AdBlock. #хорошегоДня!


Статистика раздачи
Размер:  339 MB   |    Зарегистрирован:  6 лет 2 месяца   |    .torrent скачан:  38 раз   |   
Раздают:  1  
   
Загрузка...
 
Автор Сообщение

Galfimbul

avatar Galfimbul


Andrew Lloyd Webber - The Phantom of the Opera

Жанр: Soundtrack / Post Modern
Год выпуска диска: 2004
Производитель диска: США
Аудио кодек: FLAC
Тип рипа: image+.cue
Битрейт аудио: lossless
Продолжительность: 1:03:35

Трэклист:
01. Overture
02. Think of Me
03. Angel of Music
04. The Mirror (Angel of Music)
05. The Phantom of the Opera
06. The Music of the Night
07. Prima Donna
08. All I Ask of You
09. All I Ask of You (Reprise)
10. Masquerade
11. Wishing You Were Somehow Here Again
12. The Point of No Return
13. Down Once More / Track Down This Murderer
14. Learn To Be Lonely
Exact Audio Copy V0.99 prebeta 4 from 23. January 2008

EAC extraction logfile from 16. August 2008, 22:58

Unknown Artist / Unknown Title

Used drive : _NEC DVD_RW ND-4551A Adapter: 1 ID: 1

Read mode : Secure
Utilize accurate stream : Yes
Defeat audio cache : Yes
Make use of C2 pointers : No

Read offset correction : 48
Overread into Lead-In and Lead-Out : No
Fill up missing offset samples with silence : Yes
Delete leading and trailing silent blocks : No
Null samples used in CRC calculations : Yes
Used interface : Installed external ASPI interface

Used output format : Internal WAV Routines
Sample format : 44.100 Hz; 16 Bit; Stereo

TOC of the extracted CD

Track | Start | Length | Start sector | End sector
---------------------------------------------------------
1 | 0:00.00 | 2:47.05 | 0 | 12529
2 | 2:47.05 | 3:40.62 | 12530 | 29091
3 | 6:27.67 | 2:43.50 | 29092 | 41366
4 | 9:11.42 | 1:59.29 | 41367 | 50320
5 | 11:10.71 | 3:36.10 | 50321 | 66530
6 | 14:47.06 | 5:42.02 | 66531 | 92182
7 | 20:29.08 | 3:29.55 | 92183 | 107912
8 | 23:58.63 | 4:54.12 | 107913 | 129974
9 | 28:53.00 | 2:16.34 | 129975 | 140208
10 | 31:09.34 | 5:31.40 | 140209 | 165073
11 | 36:40.74 | 3:42.71 | 165074 | 181794
12 | 40:23.70 | 8:00.72 | 181795 | 217866
13 | 48:24.67 | 12:48.48 | 217867 | 275514
14 | 61:13.40 | 2:21.35 | 275515 | 286124

Range status and errors

Selected range

Filename J:\phantom\The Phantom of the Opera O.S.T..wav

Peak level 97.9 %
Range quality 100.0 %
Copy CRC 5D3EC11D
Copy OK

No errors occurred

End of status report


Трекер:  [ 07-Июл-2011 22:49 ]

  

Скачать .torrent

Размер .torrent файла 14 KB


Размер: 339 MB
Хэш (hash) релиза: f2e7f59273af8bbdbac66ae548f321d78bf94787

Торренты, похожие на Andrew Lloyd Webber - The Phantom of the Opera - 2004, FLAC скачать торрент

Форум Название Автор Размер S L Добавлен
Саундтреки к фильмам и мультфильмам (lossless) ·· (Soundtrack) Призрак оперы / The Phantom of the Opera (Exclusive Andrew Lloyd Webber Showcase) (Andrew Lloyd Webber / Эндрю Ллойд Уэббер) - 2004, FLAC (tracks+.cue), lossless Galfimbul 295231185282 MB 0 0 1427837321

00:28

1-Апр-15

Еще никто не оставлял запись к записи скачать торрент Andrew Lloyd Webber - The Phantom of the Opera - 2004, FLAC . Будь первым!

!Обратная связь