Скачать через торрент музыку Черная кошка, белый кот Black Cat White Cat by Goran Bregovic-- 2000, APE бесплатно без регистрации torrent

Если у вас наблюдаются проблемы со скриншотами, переходом по ссылками, скачиванием торрентов - проблемы в блокировщике рекламы AdBlock. #хорошегоДня!


Статистика раздачи
Размер:  509 MB   |    Зарегистрирован:  6 лет 2 месяца   |    .torrent скачан:  66 раз   |   
Раздают:  1  
   
Загрузка...
 
Автор Сообщение

Galfimbul

avatar Galfimbul


Goran Bregovic-Black Cat White Cat

Жанр: Soundtrack
Год выпуска: 2000
Формат: APE (image + .cue)
Битрейт аудио: lossless
Продолжительность: 80:09
Трэклист:
01. Intro (El Pasa) 0:44
02. El Bubamara Pasa 1:51
03. Black Cat White Cat 3:23
04. Daddy Dance 0:25
05. The Szombathely Jiga (Ashik Cygan) 5:32
06. Bubamara (Main Version) 3:54
07. Daddy's Gone 1:05
08. Czardasz (Ashik Cygan) 3:54
09. Dejo Dance 1:02
10. Lies 0:28
11. Flor De Venganza 4:14
12. Duj Sandale 2:49
13. Hunting 1:01
14. Bubamara (Spij Kochanie) 2:29
15. Spij Kochanie, Spij (Kayah) 4:03
16. Vivaldi (Bubamara Version) 2:36
17. Jek Di Tharin 2:42
18. Long Vehicle 6:01
19. Pit Bull (Mixed By Pink Evolution) 3:36
20. Ja Volim Te Jos & Meine Stadt 1:32
21. Bulgarian Dance 1:25
22. Bubamara (Sunflower) 3:09
23. To Nie Ptak (Kayah) 4:32
24. Railway Station 2:34
25. Jek Di Tharin Ii (New Version) 3:55
26. Daddy, Don't Ever Die on a Friday 3:13
27. 100 Lat Mlodej Parze (Kayah) 3:09
28. Bubamara (Tree Stump) 0:33
29. Prawy Do Lewego (Kayah) 3:25
30. Bubamara (Final) 0:54
Exact Audio Copy V0.99 prebeta 4 from 23. January 2008

Отчёт EAC об извлечении, выполненном 30. мая 2008, 19:02

Goran Bregovic / Black Cat White Cat

Дисковод: ASUS DRW-1814BL Adapter: 1 ID: 1

Режим чтения : Достоверность
Использование точного потока : Да
Отключение кэша аудио : Да
Использование указателей C2 : Нет

Коррекция смещения при чтении : 6
Способность читать области Lead-in и Lead-out : Нет
Заполнение пропущенных сэмплов тишиной : Да
Удаление блоков с тишиной в начале и конце : Нет
При вычислениях CRC использовались нулевые сэмплы : Да
Интерфейс : Встроенный Win32-интерфейс для Win NT/2000

Выходной формат : Внутренние WAV-операции
Формат сэмплов : 44.100 Гц; 16 бит; стерео

TOC извлечённого CD

Трек | Старт | Длительность | Начальный сектор | Конечный сектор
---------------------------------------------------------------------
1 | 0:00.00 | 0:44.10 | 0 | 3309
2 | 0:44.10 | 1:51.07 | 3310 | 11641
3 | 2:35.17 | 3:23.07 | 11642 | 26873
4 | 5:58.24 | 0:25.18 | 26874 | 28766
5 | 6:23.42 | 5:32.28 | 28767 | 53694
6 | 11:55.70 | 3:53.68 | 53695 | 71237
7 | 15:49.63 | 1:04.57 | 71238 | 76094
8 | 16:54.45 | 3:54.31 | 76095 | 93675
9 | 20:49.01 | 1:01.42 | 93676 | 98292
10 | 21:50.43 | 0:28.00 | 98293 | 100392
11 | 22:18.43 | 4:14.08 | 100393 | 119450
12 | 26:32.51 | 2:48.64 | 119451 | 132114
13 | 29:21.40 | 1:01.16 | 132115 | 136705
14 | 30:22.56 | 2:28.38 | 136706 | 147843
15 | 32:51.19 | 4:02.51 | 147844 | 166044
16 | 36:53.70 | 2:36.26 | 166045 | 177770
17 | 39:30.21 | 2:42.10 | 177771 | 189930
18 | 42:12.31 | 6:01.15 | 189931 | 217020
19 | 48:13.46 | 3:35.66 | 217021 | 233211
20 | 51:49.37 | 1:32.13 | 233212 | 240124
21 | 53:21.50 | 1:25.11 | 240125 | 246510
22 | 54:46.61 | 3:08.66 | 246511 | 260676
23 | 57:55.52 | 4:31.66 | 260677 | 281067
24 | 62:27.43 | 2:33.65 | 281068 | 292607
25 | 65:01.33 | 3:54.58 | 292608 | 310215
26 | 68:56.16 | 3:12.47 | 310216 | 324662
27 | 72:08.63 | 3:09.26 | 324663 | 338863
28 | 75:18.14 | 0:33.28 | 338864 | 341366
29 | 75:51.42 | 3:25.28 | 341367 | 356769
30 | 79:16.70 | 0:53.39 | 356770 | 360783

Характеристики диапазона извлечения и сообщения об ошибках

Выбранный диапазон

Имя файла D:\Downloads\Goran Bregovic - Black Cat White Cat.wav

Пиковый уровень 100.0 %
Качество диапазона 100.0 %
CRC копии 02DB6C16
Копирование... OK

Ошибок не произошло

Конец отчёта


Трекер:  [ 07-Июл-2011 22:49 ]

  

Скачать .torrent

Размер .torrent файла 20 KB


Размер: 509 MB
Хэш (hash) релиза: 50cb27a623c21a24394fb38ecb68ce7f2684e7ad

Еще никто не оставлял запись к записи скачать торрент Черная кошка, белый кот Black Cat White Cat by Goran Bregovic-- 2000, APE . Будь первым!

!Обратная связь