Скачать через торрент музыку Бесславные ублюдки Inglourious Basterds бесплатно без регистрации torrent

Если у вас наблюдаются проблемы со скриншотами, переходом по ссылками, скачиванием торрентов - проблемы в блокировщике рекламы AdBlock. #хорошегоДня!


Статистика раздачи
Размер:  216 MB   |    Зарегистрирован:  6 лет 5 месяцев   |    .torrent скачан:  32 раза   |   
Раздают:  1  
   
Загрузка...
 
Автор Сообщение

Galfimbul

avatar Galfimbul


Бесславные ублюдки
Inglourious Basterds
(by Various Artists)

Жанр: Soundtack
Год выпуска диска: 2009
Производитель диска: USA
Аудио кодек: FLAC
Тип рипа: tracks+.cue
Битрейт аудио: lossless
Продолжительность: 00:37:14



Трэклист:
01. Nick Perito - The Green Leaves Of Summer (1:55)
02. Ennio Morricone - The Verdict (Dopa La Condanna) (1:15)
03. Charles Bernstein - White Lightning (Main Title) (2:55)
04. Billy Preston - Slaughter (4:24)
05. Ennio Morricone - The Surrender (La Resa) (2:49)
06. The Film Studio Orchestra - One Silver Dollar (UN Dollaro Bucato) (2:05)
07. Zarah Leander - Davon Geht Die Welt Nicht Unter (2:06)
08. Samantha Shelton And Michael Andrew - The Man With The Big Sombrero (1:50)
09. Lilian Harvey & Willy Fritsch - Ich Wollt Ich Waer Ein Huhn (2:45)
10. Jacques Loussier - Main Theme From Dark Sun (3:12)
11. David Bowie - Cat People (Putting Out The Fire) (4:11)
12. Lalo Schifrin - Tiger Tank (1:17)
13. Ennio Morricone - Un Amico (2:35)
14. Ennio Morricone - Rabbia E Tarantella (3:54)
 
deweyX Lossless Decoder version 20090824a (109.2)

XLD extraction logfile from 2009-08-25 13:55:35 +0200

Versch. Artisten / Quentin Tarantino's Inglourious Basterds

Used drive : MATSHITA DVD-R UJ-857E (revision ZA0E)

Use cdparanoia mode : YES (CDParanoia III 10.2 engine)Disable audio cache : OK for the drive with cache less than 2750KBMake use of C2 pointers : NORead offset correction : 102Max retry count : 100

TOC of the extracted CD Track | Start | Length | Start sector | End sector --------------------------------------------------------- 1 | 00:00:00 | 01:55:31 | 0 | 8655 2 | 01:55:31 | 01:14:51 | 8656 | 14256 3 | 03:10:07 | 02:55:29 | 14257 | 27410 4 | 06:05:36 | 04:24:18 | 27411 | 47228 5 | 10:29:54 | 02:48:55 | 47229 | 59883 6 | 13:18:34 | 02:05:16 | 59884 | 69274 7 | 15:23:50 | 02:06:27 | 69275 | 78751 8 | 17:30:02 | 01:50:17 | 78752 | 87018 9 | 19:20:19 | 02:45:13 | 87019 | 99406 10 | 22:05:32 | 03:11:68 | 99407 | 113799 11 | 25:17:25 | 04:10:63 | 113800 | 132612 12 | 29:28:13 | 01:17:29 | 132613 | 138416 13 | 30:45:42 | 02:35:15 | 138417 | 150056 14 | 33:20:57 | 03:53:51 | 150057 | 167582

All Tracks Album gain : -8.50 dB Peak : 1.000000

Track 01 Filename : /Users/dewey/Desktop/Quentin Tarantino's Inglourious Basterds/01 - The Green Leaves Of Summer.flac

Track gain : -7.50 dB Peak : 0.988647 CRC32 hash (test run) : 59F51658 CRC32 hash : 59F51658 CRC32 hash (skip zero) : D1CE45F9 AccurateRip signature : 3CD6B0B6 ->Track not present in AccurateRip database. Statistics Read error : 0 Skipped (treated as error) : 0 Edge jitter error (maybe fixed) : 0 Atom jitter error (maybe fixed) : 0 Drift error (maybe fixed) : 0 Dropped bytes error (maybe fixed) : 0 Duplicated bytes error (maybe fixed) : 0 Inconsistency in error sectors : 0

Track 02 Filename : /Users/dewey/Desktop/Quentin Tarantino's Inglourious Basterds/02 - The Verdict (Dopa La Condanna).flac

Track gain : -8.88 dB Peak : 0.988647 CRC32 hash (test run) : 47AF0D8E CRC32 hash : 47AF0D8E CRC32 hash (skip zero) : 5598A849 AccurateRip signature : 7237B67F ->Track not present in AccurateRip database. Statistics Read error : 0 Skipped (treated as error) : 0 Edge jitter error (maybe fixed) : 1 Atom jitter error (maybe fixed) : 0 Drift error (maybe fixed) : 0 Dropped bytes error (maybe fixed) : 1 Duplicated bytes error (maybe fixed) : 0 Inconsistency in error sectors : 0

Track 03 Filename : /Users/dewey/Desktop/Quentin Tarantino's Inglourious Basterds/03 - White Lightning (Main Title).flac

Track gain : -4.68 dB Peak : 0.988617 CRC32 hash (test run) : FE40D682 CRC32 hash : FE40D682 CRC32 hash (skip zero) : D3886DB5 AccurateRip signature : 3ADEDB5B ->Track not present in AccurateRip database. Statistics Read error : 0 Skipped (treated as error) : 0 Edge jitter error (maybe fixed) : 0 Atom jitter error (maybe fixed) : 0 Drift error (maybe fixed) : 0 Dropped bytes error (maybe fixed) : 0 Duplicated bytes error (maybe fixed) : 0 Inconsistency in error sectors : 0

Track 04 Filename : /Users/dewey/Desktop/Quentin Tarantino's Inglourious Basterds/04 - Slaughter.flac

Track gain : -9.51 dB Peak : 0.988678 CRC32 hash (test run) : 34FB0C5C CRC32 hash : 34FB0C5C CRC32 hash (skip zero) : A22C30BF AccurateRip signature : FDB39E83 ->Track not present in AccurateRip database. Statistics Read error : 0 Skipped (treated as error) : 0 Edge jitter error (maybe fixed) : 0 Atom jitter error (maybe fixed) : 0 Drift error (maybe fixed) : 0 Dropped bytes error (maybe fixed) : 0 Duplicated bytes error (maybe fixed) : 0 Inconsistency in error sectors : 0

Track 05 Filename : /Users/dewey/Desktop/Quentin Tarantino's Inglourious Basterds/05 - The Surrender (La Resa).flac

Track gain : -7.59 dB Peak : 0.988678 CRC32 hash (test run) : B2DC4153 CRC32 hash : B2DC4153 CRC32 hash (skip zero) : 30F1355D AccurateRip signature : 56697A09 ->Track not present in AccurateRip database. Statistics Read error : 0 Skipped (treated as error) : 0 Edge jitter error (maybe fixed) : 0 Atom jitter error (maybe fixed) : 0 Drift error (maybe fixed) : 0 Dropped bytes error (maybe fixed) : 0 Duplicated bytes error (maybe fixed) : 0 Inconsistency in error sectors : 0

Track 06 Filename : /Users/dewey/Desktop/Quentin Tarantino's Inglourious Basterds/06 - One Silver Dollar (UN Dollaro Bucato).flac

Track gain : -7.51 dB Peak : 1.000000 CRC32 hash (test run) : EEE9D933 CRC32 hash : EEE9D933 CRC32 hash (skip zero) : 526EC99F AccurateRip signature : 4D065E99 ->Track not present in AccurateRip database. Statistics Read error : 0 Skipped (treated as error) : 0 Edge jitter error (maybe fixed) : 0 Atom jitter error (maybe fixed) : 0 Drift error (maybe fixed) : 0 Dropped bytes error (maybe fixed) : 0 Duplicated bytes error (maybe fixed) : 0 Inconsistency in error sectors : 0

Track 07 Filename : /Users/dewey/Desktop/Quentin Tarantino's Inglourious Basterds/07 - Davon Geht Die Welt Nicht Unter.flac

Track gain : -7.39 dB Peak : 0.988617 CRC32 hash (test run) : 9DE49C55 CRC32 hash : 9DE49C55 CRC32 hash (skip zero) : 4F28B266 AccurateRip signature : EF893F7A ->Track not present in AccurateRip database. Statistics Read error : 0 Skipped (treated as error) : 0 Edge jitter error (maybe fixed) : 0 Atom jitter error (maybe fixed) : 0 Drift error (maybe fixed) : 0 Dropped bytes error (maybe fixed) : 0 Duplicated bytes error (maybe fixed) : 0 Inconsistency in error sectors : 0

Track 08 Filename : /Users/dewey/Desktop/Quentin Tarantino's Inglourious Basterds/08 - The Man With The Big Sombrero.flac

Track gain : -7.39 dB Peak : 0.988617 CRC32 hash (test run) : CAA0BA50 CRC32 hash : CAA0BA50 CRC32 hash (skip zero) : 94D36A6C AccurateRip signature : F3DC6A4D ->Track not present in AccurateRip database. Statistics Read error : 0 Skipped (treated as error) : 0 Edge jitter error (maybe fixed) : 0 Atom jitter error (maybe fixed) : 0 Drift error (maybe fixed) : 0 Dropped bytes error (maybe fixed) : 0 Duplicated bytes error (maybe fixed) : 0 Inconsistency in error sectors : 0

Track 09 Filename : /Users/dewey/Desktop/Quentin Tarantino's Inglourious Basterds/09 - Ich Wollt Ich Waer Ein Huhn.flac

Track gain : -6.78 dB Peak : 0.988647 CRC32 hash (test run) : CECF81D9 CRC32 hash : CECF81D9 CRC32 hash (skip zero) : 230711A9 AccurateRip signature : 840EF7F4 ->Track not present in AccurateRip database. Statistics Read error : 0 Skipped (treated as error) : 0 Edge jitter error (maybe fixed) : 0 Atom jitter error (maybe fixed) : 0 Drift error (maybe fixed) : 0 Dropped bytes error (maybe fixed) : 0 Duplicated bytes error (maybe fixed) : 0 Inconsistency in error sectors : 0

Track 10 Filename : /Users/dewey/Desktop/Quentin Tarantino's Inglourious Basterds/10 - Main Theme From Dark Sun.flac

Track gain : -9.70 dB Peak : 0.988678 CRC32 hash (test run) : 47D538FA CRC32 hash : 47D538FA CRC32 hash (skip zero) : C87D08D2 AccurateRip signature : D0BE221F ->Track not present in AccurateRip database. Statistics Read error : 0 Skipped (treated as error) : 0 Edge jitter error (maybe fixed) : 0 Atom jitter error (maybe fixed) : 0 Drift error (maybe fixed) : 0 Dropped bytes error (maybe fixed) : 0 Duplicated bytes error (maybe fixed) : 0 Inconsistency in error sectors : 0

Track 11 Filename : /Users/dewey/Desktop/Quentin Tarantino's Inglourious Basterds/11 - Cat People (Putting Out The Fire).flac

Track gain : -7.32 dB Peak : 0.988678 CRC32 hash (test run) : B8CCB175 CRC32 hash : B8CCB175 CRC32 hash (skip zero) : 65AEA870 AccurateRip signature : B1C4FB0C ->Track not present in AccurateRip database. Statistics Read error : 0 Skipped (treated as error) : 0 Edge jitter error (maybe fixed) : 0 Atom jitter error (maybe fixed) : 0 Drift error (maybe fixed) : 0 Dropped bytes error (maybe fixed) : 0 Duplicated bytes error (maybe fixed) : 0 Inconsistency in error sectors : 0

Track 12 Filename : /Users/dewey/Desktop/Quentin Tarantino's Inglourious Basterds/12 - Tiger Tank.flac

Track gain : -8.15 dB Peak : 0.988678 CRC32 hash (test run) : 1994373D CRC32 hash : 1994373D CRC32 hash (skip zero) : E9E34386 AccurateRip signature : 2AAA8B91 ->Track not present in AccurateRip database. Statistics Read error : 0 Skipped (treated as error) : 0 Edge jitter error (maybe fixed) : 0 Atom jitter error (maybe fixed) : 0 Drift error (maybe fixed) : 0 Dropped bytes error (maybe fixed) : 0 Duplicated bytes error (maybe fixed) : 0 Inconsistency in error sectors : 0

Track 13 Filename : /Users/dewey/Desktop/Quentin Tarantino's Inglourious Basterds/13 - Un Amico.flac

Track gain : -6.62 dB Peak : 0.988678 CRC32 hash (test run) : 972368F9 CRC32 hash : 972368F9 CRC32 hash (skip zero) : 5F24C252 AccurateRip signature : 6E4BDF11 ->Track not present in AccurateRip database. Statistics Read error : 0 Skipped (treated as error) : 0 Edge jitter error (maybe fixed) : 0 Atom jitter error (maybe fixed) : 0 Drift error (maybe fixed) : 0 Dropped bytes error (maybe fixed) : 0 Duplicated bytes error (maybe fixed) : 0 Inconsistency in error sectors : 0

Track 14 Filename : /Users/dewey/Desktop/Quentin Tarantino's Inglourious Basterds/14 - Rabbia E Tarantella.flac

Track gain : -8.69 dB Peak : 0.988708 CRC32 hash (test run) : E11386DA CRC32 hash : E11386DA CRC32 hash (skip zero) : 9177B611 AccurateRip signature : 070A2C67 ->Track not present in AccurateRip database. Statistics Read error : 0 Skipped (treated as error) : 0 Edge jitter error (maybe fixed) : 0 Atom jitter error (maybe fixed) : 0 Drift error (maybe fixed) : 0 Dropped bytes error (maybe fixed) : 0 Duplicated bytes error (maybe fixed) : 0 Inconsistency in error sectors : 0

No errors occurred

End of status report


Трекер:  [ 07-Июл-2011 22:49 ]

  

Скачать .torrent

Размер .torrent файла 10 KB


Размер: 216 MB
Хэш (hash) релиза: 77865dcc6b7dcc09c55852782f7bfec32a989130

Торренты, похожие на Бесславные ублюдки Inglourious Basterds скачать торрент

Форум Название Автор Размер S L Добавлен
Саундтреки к фильмам и мультфильмам (mp3) ·· (Soundtrack) Бесславные ублюдки / Inglourious Basterds (by Various Artists) + Bonus - 2009, MP3, 320 kbps Galfimbul 130285187124 MB 0 0 1292265072

21:31

13-Дек-10

Еще никто не оставлял запись к записи скачать торрент Бесславные ублюдки Inglourious Basterds . Будь первым!

!Обратная связь