Скачать через торрент музыку Let The Right One In Впусти меня бесплатно без регистрации torrent

Если у вас наблюдаются проблемы со скриншотами, переходом по ссылками, скачиванием торрентов - проблемы в блокировщике рекламы AdBlock. #хорошегоДня!


Статистика раздачи
Размер:  209 MB   |    Зарегистрирован:  6 лет 5 месяцев   |    .torrent скачан:  41 раз   |   
Раздают:  1  
   
Загрузка...
 
Автор Сообщение

Galfimbul

avatar Galfimbul


Let The Right One In / Впусти меня (Johan Söderqvist)

Жанр: Score
Год выпуска диска: 2008
Производитель диска: Швеция
Аудио кодек: FLAC
Тип рипа: tracks+.cue
Битрейт аудио: lossless
Продолжительность: 46:47
01. The Arrival
02. Eli And Oscar
03. Eli's Theme
04. The Slaughter
05. Oscar In Love
06. Hiding The Body
07. After The Fight
08. Oscar Strikes Back
09. Virginia Wakes Up
10. The Father
11. Spotting A Victim
12. Giving Up
13. Death Of Hakan
14. Virginia Is Bitten
15. Then We Are Together
16. Virginia In Flames
17. Eli Bleeds
18. Related By Blood
19. Lacke Dies
20. Going Home
21. Let The Right One In

Exact Audio Copy V0.99 prebeta 5 from 4. May 2009

EAC extraction logfile from 19. August 2009, 1:30

Johan Soderqvist / Let The Right One In

Used drive : Optiarc DVD RW AD-7170A Adapter: 0 ID: 0

Read mode : Secure
Utilize accurate stream : Yes
Defeat audio cache : Yes
Make use of C2 pointers : No

Read offset correction : 48
Overread into Lead-In and Lead-Out : No
Fill up missing offset samples with silence : Yes
Delete leading and trailing silent blocks : No
Null samples used in CRC calculations : Yes
Used interface : Native Win32 interface for Win NT & 2000
Gap handling : Appended to previous track

Used output format : User Defined Encoder
Selected bitrate : 320 kBit/s
Quality : High
Add ID3 tag : No
Command line compressor : C:\Program Files\Exact Audio Copy\Flac\flac.exe
Additional command line options : -8 -V -T "ARTIST=%a" -T "TITLE=%t" -T "ALBUM=%g" -T "DATE=%y" -T "TRACKNUMBER=%n" -T "GENRE=%m" -T "COMMENT=EAC FLAC -8" %s

TOC of the extracted CD

Track | Start | Length | Start sector | End sector
---------------------------------------------------------
1 | 0:00.00 | 2:45.62 | 0 | 12436
2 | 2:45.62 | 3:11.45 | 12437 | 26806
3 | 5:57.32 | 2:40.57 | 26807 | 38863
4 | 8:38.14 | 2:49.12 | 38864 | 51550
5 | 11:27.26 | 2:11.29 | 51551 | 61404
6 | 13:38.55 | 1:34.29 | 61405 | 68483
7 | 15:13.09 | 1:05.53 | 68484 | 73411
8 | 16:18.62 | 1:37.37 | 73412 | 80723
9 | 17:56.24 | 1:09.51 | 80724 | 85949
10 | 19:06.00 | 1:47.35 | 85950 | 94009
11 | 20:53.35 | 1:12.36 | 94010 | 99445
12 | 22:05.71 | 2:20.37 | 99446 | 109982
13 | 24:26.33 | 2:17.74 | 109983 | 120331
14 | 26:44.32 | 2:31.34 | 120332 | 131690
15 | 29:15.66 | 2:41.47 | 131691 | 143812
16 | 31:57.38 | 2:15.04 | 143813 | 153941
17 | 34:12.42 | 1:44.60 | 153942 | 161801
18 | 35:57.27 | 1:33.56 | 161802 | 168832
19 | 37:31.08 | 1:47.16 | 168833 | 176873
20 | 39:18.24 | 1:40.35 | 176874 | 184408
21 | 40:58.59 | 5:49.13 | 184409 | 210596

Track 1

Filename C:\SoundTrack_Let The Right One In\ 01. Johan Soderqvist – The Arrival.wav

Pre-gap length 0:00:02.00

Peak level 97.7 %
Track quality 100.0 %
Test CRC 00B60A61
Copy CRC 00B60A61
Copy OK

Track 2

Filename C:\SoundTrack_Let The Right One In\ 02. Johan Soderqvist – Eli And Oscar.wav

Peak level 67.8 %
Track quality 99.9 %
Test CRC 5F56C033
Copy CRC 5F56C033
Copy OK

Track 3

Filename C:\SoundTrack_Let The Right One In\ 03. Johan Soderqvist – Eli's Theme.wav

Peak level 97.7 %
Track quality 100.0 %
Test CRC 9121B5B0
Copy CRC 9121B5B0
Copy OK

Track 4

Filename C:\SoundTrack_Let The Right One In\ 04. Johan Soderqvist – The Slaughter.wav

Peak level 97.7 %
Track quality 100.0 %
Test CRC 70877EA1
Copy CRC 70877EA1
Copy OK

Track 5

Filename C:\SoundTrack_Let The Right One In\ 05. Johan Soderqvist – Oscar In Love.wav

Peak level 58.5 %
Track quality 100.0 %
Test CRC 1A98443F
Copy CRC 1A98443F
Copy OK

Track 6

Filename C:\SoundTrack_Let The Right One In\ 06. Johan Soderqvist – Hiding The Body.wav

Peak level 93.6 %
Track quality 100.0 %
Test CRC 6BC359EA
Copy CRC 6BC359EA
Copy OK

Track 7

Filename C:\SoundTrack_Let The Right One In\ 07. Johan Soderqvist – After The Fight.wav

Peak level 62.6 %
Track quality 100.0 %
Test CRC ED03454F
Copy CRC ED03454F
Copy OK

Track 8

Filename C:\SoundTrack_Let The Right One In\ 08. Johan Soderqvist – Oscar Strikes Back.wav

Peak level 97.7 %
Track quality 100.0 %
Test CRC 6654DAFC
Copy CRC 6654DAFC
Copy OK

Track 9

Filename C:\SoundTrack_Let The Right One In\ 09. Johan Soderqvist – Virginia Wakes Up.wav

Peak level 97.7 %
Track quality 100.0 %
Test CRC 68C0C82F
Copy CRC 68C0C82F
Copy OK

Track 10

Filename C:\SoundTrack_Let The Right One In\ 10. Johan Soderqvist – The Father.wav

Peak level 82.1 %
Track quality 100.0 %
Test CRC 9196AE5D
Copy CRC 9196AE5D
Copy OK

Track 11

Filename C:\SoundTrack_Let The Right One In\ 11. Johan Soderqvist – Spotting A Victim.wav

Peak level 67.0 %
Track quality 100.0 %
Test CRC A8453099
Copy CRC A8453099
Copy OK

Track 12

Filename C:\SoundTrack_Let The Right One In\ 12. Johan Soderqvist – Giving Up.wav

Peak level 42.8 %
Track quality 100.0 %
Test CRC B72604DE
Copy CRC B72604DE
Copy OK

Track 13

Filename C:\SoundTrack_Let The Right One In\ 13. Johan Soderqvist – Death Of Hakan.wav

Peak level 40.3 %
Track quality 100.0 %
Test CRC 58588CCD
Copy CRC 58588CCD
Copy OK

Track 14

Filename C:\SoundTrack_Let The Right One In\ 14. Johan Soderqvist – Virginia Is Bitten.wav

Peak level 97.7 %
Track quality 100.0 %
Test CRC A1614563
Copy CRC A1614563
Copy OK

Track 15

Filename C:\SoundTrack_Let The Right One In\ 15. Johan Soderqvist – Then We Are Together.wav

Peak level 63.8 %
Track quality 100.0 %
Test CRC 4E56E643
Copy CRC 4E56E643
Copy OK

Track 16

Filename C:\SoundTrack_Let The Right One In\ 16. Johan Soderqvist – Virginia In Flames.wav

Peak level 97.7 %
Track quality 100.0 %
Test CRC 97858541
Copy CRC 97858541
Copy OK

Track 17

Filename C:\SoundTrack_Let The Right One In\ 17. Johan Soderqvist – Eli Bleeds.wav

Peak level 77.4 %
Track quality 100.0 %
Test CRC 4B7695F9
Copy CRC 4B7695F9
Copy OK

Track 18

Filename C:\SoundTrack_Let The Right One In\ 18. Johan Soderqvist – Related By Blood.wav

Peak level 89.8 %
Track quality 100.0 %
Test CRC FA81A084
Copy CRC FA81A084
Copy OK

Track 19

Filename C:\SoundTrack_Let The Right One In\ 19. Johan Soderqvist – Lacke Dies.wav

Peak level 97.7 %
Track quality 100.0 %
Test CRC 0CE42499
Copy CRC 0CE42499
Copy OK

Track 20

Filename C:\SoundTrack_Let The Right One In\ 20. Johan Soderqvist – Going Home.wav

Peak level 57.5 %
Track quality 100.0 %
Test CRC 3720DC46
Copy CRC 3720DC46
Copy OK

Track 21

Filename C:\SoundTrack_Let The Right One In\ 21. Johan Soderqvist – Let The Right One In.wav

Peak level 90.1 %
Track quality 100.0 %
Test CRC B958C9A4
Copy CRC B958C9A4
Copy OK

No errors occurred

End of status report


Трекер:  [ 07-Июл-2011 22:50 ]

  

Скачать .torrent

Размер .torrent файла 18 KB


Размер: 209 MB
Хэш (hash) релиза: b02db95be22e06a231dfcd0c5807016b71658943

Торренты, похожие на Let The Right One In Впусти меня скачать торрент

Форум Название Автор Размер S L Добавлен
Саундтреки к фильмам и мультфильмам (mp3) ·· (Score) Впусти меня / Let The Right One In (Johan Söderqvist) - 2008, MP3 (tracks), 256 kbps Солнышко 9906823094 MB 0 0 1292265819

21:43

13-Дек-10

Еще никто не оставлял запись к записи скачать торрент Let The Right One In Впусти меня . Будь первым!

!Обратная связь