Скачать через торрент музыку The Animatrix Аниматрица - 2003, FLAC бесплатно без регистрации torrent

Если у вас наблюдаются проблемы со скриншотами, переходом по ссылками, скачиванием торрентов - проблемы в блокировщике рекламы AdBlock. #хорошегоДня!


Статистика раздачи
Размер:  480 MB   |    Зарегистрирован:  6 лет 2 месяца   |    .torrent скачан:  41 раз   |   
Раздают:  1  
   
Загрузка...
 
Автор Сообщение

Galfimbul

avatar Galfimbul


VA – The Animatrix – The Album

Страна: Великобритания
Жанр: Soundtrack
Год выпуска: 2003
Формат: FLAC (image + .cue)
Битрейт аудио: lossless
Продолжительность: 01:12:28

Трэклист:
01. Peace Orchestra - Who Am I? (Animatrix Edit) (5:59)
02. Free*Land - Big Wednesday (4:50)
03. Layo & Bushwacka! - Blind Tiger (6:19)
04. Supreme Beings of Leisure - Under The Gun (3:29)
05. Meat Beat Manifesto - Martenot Waves (7:42)
06. Photek - Ren 2 (4:06)
07. Death In Vegas - Hands Around My Throat (5:06)
08. Junkie XL (Featuring Saffron) - Beauty Never Fades (Animatrix Edit) (6:14)
09. Overseer - Supermoves (Animatrix Remix) (4:18)
10. Juno Reactor - Conga Fury (Animatrix Mix) (7:25)
11. Junkie XL/Don Davis - Red Pill, Blue Pill (8:58)
12. Tech Itch/Don Davis - The Real (8:02)
Exact Audio Copy V0.99 prebeta 4 from 23. January 2008

Отчёт EAC об извлечении, выполненном 1. июня 2008, 21:49

Various / The Animatrix - The Album

Дисковод: PIONEER DVD-RW DVR-K06RS Adapter: 1 ID: 0

Режим чтения : Достоверность
Использование точного потока : Да
Отключение кэша аудио : Да
Использование указателей C2 : Нет

Коррекция смещения при чтении : 48
Способность читать области Lead-in и Lead-out : Нет
Заполнение пропущенных сэмплов тишиной : Да
Удаление блоков с тишиной в начале и конце : Нет
При вычислениях CRC использовались нулевые сэмплы : Да
Интерфейс : Встроенный Win32-интерфейс для Win NT/2000

Выходной формат : Пользовательский кодировщик
Выбранный битрейт : 128 kBit/s
Качество : Высокий
Добавление ID3-тэга : Нет
Утилита сжатия : C:\Program Files\FLAC\flac.exe
Дополнительные параметры : -8 -V -T "ARTIST=%a" -T "TITLE=%t" -T "ALBUM=%g" -T "DATE=%y" -T "TRACKNUMBER=%n" -T "GENRE=%m" -T "COMMENT=EAC FLAC -8" %s

TOC извлечённого CD

Трек | Старт | Длительность | Начальный сектор | Конечный сектор
---------------------------------------------------------------------
1 | 0:00.00 | 5:58.70 | 0 | 26919
2 | 5:58.70 | 4:50.15 | 26920 | 48684
3 | 10:49.10 | 6:19.35 | 48685 | 77144
4 | 17:08.45 | 3:28.47 | 77145 | 92791
5 | 20:37.17 | 7:41.68 | 92792 | 127434
6 | 28:19.10 | 4:05.72 | 127435 | 145881
7 | 32:25.07 | 5:05.63 | 145882 | 168819
8 | 37:30.70 | 6:13.50 | 168820 | 196844
9 | 43:44.45 | 4:18.20 | 196845 | 216214
10 | 48:02.65 | 7:24.65 | 216215 | 249579
11 | 55:27.55 | 8:58.27 | 249580 | 289956
12 | 64:26.07 | 8:01.73 | 289957 | 326104

Характеристики диапазона извлечения и сообщения об ошибках

Выбранный диапазон

Имя файла D:\torrents\releasing\VA - The Animatrix - The Album.wav

Пиковый уровень 98.8 %
Качество диапазона 99.9 %
CRC теста 7E7C9A15
CRC копии 7E7C9A15
Копирование... OK

Ошибок не произошло

Конец отчёта


Трекер:  [ 07-Июл-2011 22:50 ]

  

Скачать .torrent

Размер .torrent файла 20 KB


Размер: 480 MB
Хэш (hash) релиза: e44bd9a9a7759ce3bbd0199e5ac369ff5b422b1b

Еще никто не оставлял запись к записи скачать торрент The Animatrix Аниматрица - 2003, FLAC . Будь первым!

!Обратная связь