Скачать через торрент музыку Пляж The Beach бесплатно без регистрации torrent

Если у вас наблюдаются проблемы со скриншотами, переходом по ссылками, скачиванием торрентов - проблемы в блокировщике рекламы AdBlock. #хорошегоДня!


Статистика раздачи
Размер:  456 MB   |    Зарегистрирован:  6 лет 2 месяца   |    .torrent скачан:  73 раза   |   
Раздают:  1  
   
Загрузка...
 
Автор Сообщение

Galfimbul

avatar Galfimbul


Пляж / The Beach (Motion Picture Soundtrack)

Жанр: Soundtrack
Год выпуска диска: 2000
Производитель диска: UK
Аудио кодек: APE
Тип рипа: image+.cue
Битрейт аудио: lossless
Продолжительность: 76:15
Трэклист:
1. Leftfield - Snakeblood
2. All Saints - Pure Shores
3. Moby - Porcelain
4. Dario G - Voices (Featuring Vanessa Quinones)
5. Underworld - 8 Ball
6. Sugar Ray - Spinning Away
7. Asian Dub Foundation - Return of Django
8. Blur - On Your Own (Crouch End Broadway Mix)
9. Mory Kante - Yeke Yeke (Hard Floor Mix)
10. Faithless - Woozy
11. Barry Adamson - Richard, It's Business As Usual
12. New Order - Brutal
13. Unkle - Lonely Soul (Featuring Richard Ashcroft)
14. Orbital & Angelo Badalamenti - Beached

Доп. информация:

Саундтрек к "Пляжу" в максимальном качестве с правильным офсетом.

Источник - собственный диск.
 
Exact Audio Copy V0.99 prebeta 4 from 23. January 2008

EAC extraction logfile from 9. February 2009, 19:45

Various / The Beach (Motion Picture Soundtrack)

Used drive : MATSHITADVD-RAM UJ-830S Adapter: 1 ID: 0

Read mode : SecureUtilize accurate stream : YesDefeat audio cache : YesMake use of C2 pointers : No

Read offset correction : 102Overread into Lead-In and Lead-Out : NoFill up missing offset samples with silence : YesDelete leading and trailing silent blocks : NoNull samples used in CRC calculations : YesUsed interface : Installed external ASPI interface

Used output format : Monkey's Audio Lossless Encoder v3.99 DLLSample format : High Lossless Compression

TOC of the extracted CD

Track | Start | Length | Start sector | End sector --------------------------------------------------------- 1 | 0:00.32 | 5:39.48 | 32 | 25504 2 | 5:40.05 | 4:24.47 | 25505 | 45351 3 | 10:04.52 | 3:58.73 | 45352 | 63274 4 | 14:03.50 | 5:19.12 | 63275 | 87211 5 | 19:22.62 | 8:51.38 | 87212 | 127074 6 | 28:14.25 | 4:24.07 | 127075 | 146881 7 | 32:38.32 | 4:17.58 | 146882 | 166214 8 | 36:56.15 | 3:32.22 | 166215 | 182136 9 | 40:28.37 | 3:54.23 | 182137 | 199709 10 | 44:22.60 | 7:52.72 | 199710 | 235181 11 | 52:15.57 | 4:17.68 | 235182 | 254524 12 | 56:33.50 | 4:48.70 | 254525 | 276194 13 | 61:22.45 | 8:54.52 | 276195 | 316296 14 | 70:17.22 | 6:44.73 | 316297 | 346669

Range status and errors

Selected range

Filename D:\CD\The Beach OST\Various - The Beach (Motion Picture Soundtrack).ape

Peak level 100.0 % Range quality 100.0 % Test CRC 2AFFD3F5 Copy CRC 2AFFD3F5 Copy OK

No errors occurred

End of status report


Трекер:  [ 07-Июл-2011 22:53 ]

  

Скачать .torrent

Размер .torrent файла 18 KB


Размер: 456 MB
Хэш (hash) релиза: 72672faf483b480159385257a9408283982cc296

Торренты, похожие на Пляж The Beach скачать торрент

Форум Название Автор Размер S L Добавлен
Саундтреки к фильмам и мультфильмам (mp3) ·· (Soundtrack) Пляж / The Beach - 2000, MP3, 320 kbps Phoenix 185060561176 MB 0 0 1292265138

21:32

13-Дек-10

Саундтреки к фильмам и мультфильмам (lossless) ·· (Score) The Beach / Пляж (Angelo Badalamenti) - 2000, FLAC (tracks+.cue), lossless Galfimbul 266372688254 MB 0 0 1292268618

22:30

13-Дек-10

Еще никто не оставлял запись к записи скачать торрент Пляж The Beach . Будь первым!

!Обратная связь