Скачать через торрент музыку Trevor Rabin & VA - Gone In 60 Seconds Угнать за 60 секунд OST - 2000, FLAC бесплатно без регистрации torrent

Если у вас наблюдаются проблемы со скриншотами, переходом по ссылками, скачиванием торрентов - проблемы в блокировщике рекламы AdBlock. #хорошегоДня!


Статистика раздачи
Размер:  363 MB   |    Зарегистрирован:  6 лет 9 месяцев   |    .torrent скачан:  75 раз   |   
Раздают:  1  
   
Загрузка...
 
Автор Сообщение

AqvaGen


Gone In 60 Seconds / Угнать за 60 секунд OST

Жанр: Soundtrack

Год выпуска диска: 2000

Производитель диска: США

Аудио кодек: FLAC

Тип рипа: tracks+.cue

Битрейт аудио: lossless

Продолжительность: 55:28

Трэклист:
01 - Cult - Painted On My Heart
02 - Gomez - Machismo
03 - Moby - Flower
04 - Groove Armada - Rap
05 - Chemical Brothers - Leave Home
06 - Method Man & Redman - Da Rockwilder
07 - Ice Cube - Roll All Day
08 - Caviar - Sugarless
09 - BT (featuring M. Doughty) - Never Gonna Come Back Down
10 - A3 - Too Sick To Pray
11 - DMX - Party Up (Up In Here)
12 - Apollo Four Forty - Stop The Rock
13 - Citizen King - Better Days (And The Bottom Drops Out)
14 - Trevor Rabin - Boost Me

Источник: Найдено в сети
Exact Audio Copy V0.99 prebeta 4 from 23. January 2008

EAC extraction logfile from 26. January 2009, 23:46

VA / Gone in 60 Seconds

Used drive : HL-DT-STDVD-RAM GSA-H55N Adapter: 1 ID: 1

Read mode : Secure
Utilize accurate stream : Yes
Defeat audio cache : Yes
Make use of C2 pointers : No

Read offset correction : 102
Overread into Lead-In and Lead-Out : No
Fill up missing offset samples with silence : Yes
Delete leading and trailing silent blocks : No
Null samples used in CRC calculations : Yes
Used interface : Native Win32 interface for Win NT & 2000
Gap handling : Appended to previous track

Used output format : User Defined Encoder
Selected bitrate : 128 kBit/s
Quality : High
Add ID3 tag : No
Command line compressor : C:\Program Files\Exact Audio Copy\Flac\flac.exe
Additional command line options : -V -8 -T "artist=%a" -T "title=%t" -T "album=%g" -T "date=%y" -T "tracknumber=%n" -T "genre=%m" %s

TOC of the extracted CD

Track | Start | Length | Start sector | End sector
---------------------------------------------------------
1 | 0:00.00 | 4:27.65 | 0 | 20089
2 | 4:27.65 | 3:36.47 | 20090 | 36336
3 | 8:04.37 | 3:25.53 | 36337 | 51764
4 | 11:30.15 | 4:15.32 | 51765 | 70921
5 | 15:45.47 | 5:13.70 | 70922 | 94466
6 | 20:59.42 | 2:20.05 | 94467 | 104971
7 | 23:19.47 | 3:15.43 | 104972 | 119639
8 | 26:35.15 | 3:07.10 | 119640 | 133674
9 | 29:42.25 | 3:47.50 | 133675 | 150749
10 | 33:30.00 | 4:46.10 | 150750 | 172209
11 | 38:16.10 | 4:32.20 | 172210 | 192629
12 | 42:48.30 | 3:33.05 | 192630 | 208609
13 | 46:21.35 | 6:25.35 | 208610 | 237519
14 | 52:46.70 | 2:47.55 | 237520 | 250099

Track 1

Filename C:\Documents and Settings\Bill\Desktop\Gone In 60 Seconds OST [2000] (FLAC)\01 - Cult - Painted On My Heart.wav

Pre-gap length 0:00:02.00

Peak level 100.0 %
Track quality 99.9 %
Test CRC 8EF8208C
Copy CRC 8EF8208C
Accurately ripped (confidence 3) [0A0CF093]
Copy OK

Track 2

Filename C:\Documents and Settings\Bill\Desktop\Gone In 60 Seconds OST [2000] (FLAC)\02 - Gomez - Machismo.wav

Peak level 100.0 %
Track quality 100.0 %
Test CRC 5235FC7A
Copy CRC 5235FC7A
Accurately ripped (confidence 3) [0274A614]
Copy OK

Track 3

Filename C:\Documents and Settings\Bill\Desktop\Gone In 60 Seconds OST [2000] (FLAC)\03 - Moby - Flower.wav

Peak level 97.9 %
Track quality 100.0 %
Test CRC C94194B5
Copy CRC C94194B5
Accurately ripped (confidence 3) [4B869F26]
Copy OK

Track 4

Filename C:\Documents and Settings\Bill\Desktop\Gone In 60 Seconds OST [2000] (FLAC)\04 - Groove Armada - Rap.wav

Peak level 98.8 %
Track quality 100.0 %
Test CRC FED1E16D
Copy CRC FED1E16D
Accurately ripped (confidence 3) [ACC0BDD2]
Copy OK

Track 5

Filename C:\Documents and Settings\Bill\Desktop\Gone In 60 Seconds OST [2000] (FLAC)\05 - Chemical Brothers - Leave Home.wav

Peak level 100.0 %
Track quality 100.0 %
Test CRC F9718B45
Copy CRC F9718B45
Accurately ripped (confidence 3) [9FC3868C]
Copy OK

Track 6

Filename C:\Documents and Settings\Bill\Desktop\Gone In 60 Seconds OST [2000] (FLAC)\06 - Method Man & Redman - Da Rockwilder.wav

Peak level 100.0 %
Track quality 100.0 %
Test CRC E2B6D915
Copy CRC E2B6D915
Accurately ripped (confidence 3) [1052A386]
Copy OK

Track 7

Filename C:\Documents and Settings\Bill\Desktop\Gone In 60 Seconds OST [2000] (FLAC)\07 - Ice Cube - Roll All Day.wav

Peak level 100.0 %
Track quality 99.9 %
Test CRC B622208C
Copy CRC B622208C
Accurately ripped (confidence 2) [F6DFB7E8]
Copy OK

Track 8

Filename C:\Documents and Settings\Bill\Desktop\Gone In 60 Seconds OST [2000] (FLAC)\08 - Caviar - Sugarless.wav

Peak level 100.0 %
Track quality 100.0 %
Test CRC 266B9D7C
Copy CRC 266B9D7C
Accurately ripped (confidence 3) [B3A38158]
Copy OK

Track 9

Filename C:\Documents and Settings\Bill\Desktop\Gone In 60 Seconds OST [2000] (FLAC)\09 - BT (featuring M. Doughty) - Never Gonna Come Back Down.wav

Peak level 98.8 %
Track quality 100.0 %
Test CRC D23CEF2E
Copy CRC D23CEF2E
Accurately ripped (confidence 3) [60CFEF89]
Copy OK

Track 10

Filename C:\Documents and Settings\Bill\Desktop\Gone In 60 Seconds OST [2000] (FLAC)\10 - A3 - Too Sick To Pray.wav

Peak level 100.0 %
Track quality 100.0 %
Test CRC 7C2CFE7A
Copy CRC 7C2CFE7A
Accurately ripped (confidence 3) [E701B5DE]
Copy OK

Track 11

Filename C:\Documents and Settings\Bill\Desktop\Gone In 60 Seconds OST [2000] (FLAC)\11 - DMX - Party Up (Up In Here).wav

Peak level 100.0 %
Track quality 100.0 %
Test CRC 6E62B032
Copy CRC 6E62B032
Accurately ripped (confidence 3) [FDFE4D6D]
Copy OK

Track 12

Filename C:\Documents and Settings\Bill\Desktop\Gone In 60 Seconds OST [2000] (FLAC)\12 - Apollo Four Forty - Stop The Rock.wav

Pre-gap length 0:00:01.08

Peak level 99.9 %
Track quality 100.0 %
Test CRC 0E139157
Copy CRC 0E139157
Accurately ripped (confidence 3) [11F92B97]
Copy OK

Track 13

Filename C:\Documents and Settings\Bill\Desktop\Gone In 60 Seconds OST [2000] (FLAC)\13 - Citizen King - Better Days (And The Bottom Drops Out).wav

Peak level 100.0 %
Track quality 100.0 %
Test CRC BAD273CB
Copy CRC BAD273CB
Accurately ripped (confidence 3) [85B9A63C]
Copy OK

Track 14

Filename C:\Documents and Settings\Bill\Desktop\Gone In 60 Seconds OST [2000] (FLAC)\14 - Trevor Rabin - Boost Me.wav

Pre-gap length 0:00:01.30

Peak level 100.0 %
Track quality 99.9 %
Test CRC 7A5B9F0D
Copy CRC 7A5B9F0D
Accurately ripped (confidence 2) [45314F5D]
Copy OK

All tracks accurately ripped

No errors occurred

End of status report
E:\...ists\2000 Gone In 60 Seconds OST>m0 "01 - Cult - Painted On My Heart.wav"
auCDtect: CD records authenticity detector, version 0.8.2
Copyright (c) 2004 Oleg Berngardt. All rights reserved.
Copyright (c) 2004 Alexander Djourik. All rights reserved.
------------------------------------------------------------
Processing file: [01 - Cult - Painted On My Heart.wav]
Detected average hi-boundary frequency: 2.015794e+004 Hz
Detected average lo-boundary frequency: 1.348123e+004 Hz
Detected average hi-cut frequency: 2.183612e+004 Hz
Detected average lo-cut frequency: 1.331442e+004 Hz
Maximum probablis boundary frequency: 2.189100e+004 Hz
Coefficient of nonlinearity of a phase: 1.043542e-001
First order smothness: 3.460329e-001
Second order smothness: 6.127228e-001

------------------------------------------------------------
This track looks like CDDA with probability 100%


Трекер:  [ 21-Дек-2010 15:18 ]

  

Скачать .torrent

Размер .torrent файла 15 KB


Размер: 363 MB
Хэш (hash) релиза: f87b656c933691192c15f0e4b19ab24f916dd56e

bot

Топик был перенесен в форум Саундтреки к фильмам и мультфильмам (lossless)

Перенес AqvaGen

Mos

:!: Обложка не отображается.

AqvaGen

Перезалил

Mos

 !  Mos:
Обложка не более 500*500

AqvaGen

Исправил

Хотите добавить комментарий к записи скачать торрент Trevor Rabin & VA - Gone In 60 Seconds Угнать за 60 секунд OST - 2000, FLAC

!Обратная связь