Скачать через торрент музыку Луна 2112 Moon бесплатно без регистрации torrent

Если у вас наблюдаются проблемы со скриншотами, переходом по ссылками, скачиванием торрентов - проблемы в блокировщике рекламы AdBlock. #хорошегоДня!


Статистика раздачи
Размер:  246 MB   |    Зарегистрирован:  6 лет 9 месяцев   |    .torrent скачан:  51 раз   |   
Раздают:  1  
   
Загрузка...
 
Автор Сообщение

AqvaGen


Луна 2112 / Moon

Жанр: Score
Композитор: Clint Mansell
Год выпуска диска: 2009
Производитель диска: USA
Аудио кодек: FLAC
Тип рипа: tracks+.cue
Битрейт аудио: lossless
Продолжительность: 00:55:14

01 - Welcome to Lunar Industries (07:12)
02 - Two Weeks & Counting (02:00)
03 - I'm Sam Bell (03:45)
04 - I'm Sam Bell, Too... (05:05)
05 - Memories (Someone We'll Never Know) (04:53)
06 - Are You Recieving? (03:18)
07 - Can't Get There From Here (03:17)
08 - 'We're Not Programs, Gerty, We're People' (05:10)
09 - The Nursery (03:46)
10 - Sacrifice (03:03)
11 - We're Going Home (03:42)
12 - Welcome to Lunar Industries (Three Year Stretch...) (10:04)

 
Exact Audio Copy V0.99 prebeta 5 from 4. May 2009

EAC extraction logfile from 31. December 2009, 15:51

Clint Mansell / Moon

Used drive : PIONEER DVD-RW DVR-216D Adapter: 4 ID: 0

Read mode : SecureUtilize accurate stream : YesDefeat audio cache : YesMake use of C2 pointers : No

Read offset correction : 96Overread into Lead-In and Lead-Out : NoFill up missing offset samples with silence : YesDelete leading and trailing silent blocks : NoNull samples used in CRC calculations : YesUsed interface : Native Win32 interface for Win NT & 2000Gap handling : Appended to previous track

Used output format : User Defined EncoderSelected bitrate : 128 kBit/sQuality : HighAdd ID3 tag : NoCommand line compressor : C:\Program Files (x86)\FLAC\flac.exeAdditional command line options : -V -8 -T "artist=%a" -T "title=%t" -T "album=%g" -T "date=%y" -T "tracknumber=%n" -T "genre=%m" %s

TOC of the extracted CD

Track | Start | Length | Start sector | End sector --------------------------------------------------------- 1 | 0:00.00 | 7:12.06 | 0 | 32405 2 | 7:12.06 | 2:00.26 | 32406 | 41431 3 | 9:12.32 | 3:44.52 | 41432 | 58283 4 | 12:57.09 | 5:05.12 | 58284 | 81170 5 | 18:02.21 | 4:52.41 | 81171 | 103111 6 | 22:54.62 | 3:17.63 | 103112 | 117949 7 | 26:12.50 | 3:17.25 | 117950 | 132749 8 | 29:30.00 | 5:10.19 | 132750 | 156018 9 | 34:40.19 | 3:45.59 | 156019 | 172952 10 | 38:26.03 | 3:03.22 | 172953 | 186699 11 | 41:29.25 | 3:41.46 | 186700 | 203320 12 | 45:10.71 | 10:04.04 | 203321 | 248624

Track 1

Filename D:\Music\Clint Mansell\Clint Mansell - Moon\01 Welcome to Lunar Industries.wav

Pre-gap length 0:00:02.00

Peak level 96.6 % Track quality 100.0 % Test CRC 18D10947 Copy CRC 18D10947 Copy OK

Track 2

Filename D:\Music\Clint Mansell\Clint Mansell - Moon\02 Two Weeks & Counting.wav

Peak level 96.6 % Track quality 100.0 % Test CRC 17FFF530 Copy CRC 17FFF530 Copy OK

Track 3

Filename D:\Music\Clint Mansell\Clint Mansell - Moon\03 I'm Sam Bell.wav

Peak level 49.9 % Track quality 100.0 % Test CRC FE823C00 Copy CRC FE823C00 Copy OK

Track 4

Filename D:\Music\Clint Mansell\Clint Mansell - Moon\04 I'm Sam Bell, Too....wav

Peak level 96.5 % Track quality 99.9 % Test CRC D76756D7 Copy CRC D76756D7 Copy OK

Track 5

Filename D:\Music\Clint Mansell\Clint Mansell - Moon\05 Memories (Someone We'll Never Know).wav

Peak level 96.6 % Track quality 99.9 % Test CRC 986A0952 Copy CRC 986A0952 Copy OK

Track 6

Filename D:\Music\Clint Mansell\Clint Mansell - Moon\06 Are You Recieving .wav

Peak level 96.6 % Track quality 100.0 % Test CRC E7E1A148 Copy CRC E7E1A148 Copy OK

Track 7

Filename D:\Music\Clint Mansell\Clint Mansell - Moon\07 Can't Get There From Here.wav

Peak level 96.6 % Track quality 100.0 % Test CRC 4B73F446 Copy CRC 4B73F446 Copy OK

Track 8

Filename D:\Music\Clint Mansell\Clint Mansell - Moon\08 'We're Not Programs, Gerty, We're People'.wav

Peak level 93.3 % Track quality 100.0 % Test CRC A8FC2E82 Copy CRC A8FC2E82 Copy OK

Track 9

Filename D:\Music\Clint Mansell\Clint Mansell - Moon\09 The Nursery.wav

Peak level 96.6 % Track quality 99.9 % Test CRC 5E3875DA Copy CRC 5E3875DA Copy OK

Track 10

Filename D:\Music\Clint Mansell\Clint Mansell - Moon\10 Sacrifice.wav

Peak level 96.6 % Track quality 99.9 % Test CRC 8C5ABA65 Copy CRC 8C5ABA65 Copy OK

Track 11

Filename D:\Music\Clint Mansell\Clint Mansell - Moon\11 We're Going Home.wav

Peak level 96.6 % Track quality 100.0 % Test CRC 97CFF92D Copy CRC 97CFF92D Copy OK

Track 12

Filename D:\Music\Clint Mansell\Clint Mansell - Moon\12 Welcome to Lunar Industries (Three Year Stretch...).wav

Peak level 96.6 % Track quality 99.9 % Test CRC 61E6BC59 Copy CRC 61E6BC59 Copy OK

No errors occurred

End of status report
 
REM GENRE SoundtrackREM DATE 2009REM DISCID A70CF30CREM COMMENT "ExactAudioCopy v0.99pb5"PERFORMER "Clint Mansell"TITLE "Moon"FILE "01 Welcome to Lunar Industries.wav" WAVE TRACK 01 AUDIO TITLE "Welcome to Lunar Industries" PERFORMER "Clint Mansell" INDEX 01 00:00:00FILE "02 Two Weeks & Counting.wav" WAVE TRACK 02 AUDIO TITLE "Two Weeks & Counting" PERFORMER "Clint Mansell" INDEX 01 00:00:00FILE "03 I'm Sam Bell.wav" WAVE TRACK 03 AUDIO TITLE "I'm Sam Bell" PERFORMER "Clint Mansell" INDEX 01 00:00:00FILE "04 I'm Sam Bell, Too....wav" WAVE TRACK 04 AUDIO TITLE "I'm Sam Bell, Too..." PERFORMER "Clint Mansell" INDEX 01 00:00:00FILE "05 Memories (Someone We'll Never Know).wav" WAVE TRACK 05 AUDIO TITLE "Memories (Someone We'll Never Know)" PERFORMER "Clint Mansell" INDEX 01 00:00:00FILE "06 Are You Recieving .wav" WAVE TRACK 06 AUDIO TITLE "Are You Recieving?" PERFORMER "Clint Mansell" INDEX 01 00:00:00FILE "07 Can't Get There From Here.wav" WAVE TRACK 07 AUDIO TITLE "Can't Get There From Here" PERFORMER "Clint Mansell" INDEX 01 00:00:00FILE "08 'We're Not Programs, Gerty, We're People'.wav" WAVE TRACK 08 AUDIO TITLE "'We're Not Programs, Gerty, We're People'" PERFORMER "Clint Mansell" INDEX 01 00:00:00FILE "09 The Nursery.wav" WAVE TRACK 09 AUDIO TITLE "The Nursery" PERFORMER "Clint Mansell" INDEX 01 00:00:00FILE "10 Sacrifice.wav" WAVE TRACK 10 AUDIO TITLE "Sacrifice" PERFORMER "Clint Mansell" INDEX 01 00:00:00FILE "11 We're Going Home.wav" WAVE TRACK 11 AUDIO TITLE "We're Going Home" PERFORMER "Clint Mansell" INDEX 01 00:00:00FILE "12 Welcome to Lunar Industries (Three Year Stretch...).wav" WAVE TRACK 12 AUDIO TITLE "Welcome to Lunar Industries (Three Year Stretch...)" PERFORMER "Clint Mansell" INDEX 01 00:00:00


Трекер:  [ 21-Дек-2010 15:20 ]

  

Скачать .torrent

Размер .torrent файла 20 KB


Размер: 246 MB
Хэш (hash) релиза: 3a151c2f094274f4d27e7f89be42cafcaa614ca4

Торренты, похожие на Луна 2112 Moon скачать торрент

Форум Название Автор Размер S L Добавлен
Саундтреки к фильмам и мультфильмам (mp3) ·· (Score) Clint Mansell - Moon / Клинт Мэнселл - Луна 2112 - 2009, MP3 (tracks), 320 kbps AqvaGen 134380723128 MB 0 0 1292265080

21:31

13-Дек-10

bot

Топик был перенесен в форум Саундтреки к фильмам и мультфильмам (lossless)

Перенес AqvaGen

Хотите добавить комментарий к записи скачать торрент Луна 2112 Moon

!Обратная связь