Скачать через торрент Тень во мраке Descendant Фильм бесплатно в хорошем качестве torrent

Скачивайте на UnionPeer.org фильмы через торрент без регистрации. Новинки кино в хорошем качестве через торрент. На UnionPeer.org можно скачать через торрент фильмы 2014 и 2015 годов. Самые новые фильмы.

Скачать торрент Тень во мраке Descendant бесплатно через .torrent фильм мультфильм сериал

Если у вас наблюдаются проблемы со скриншотами, переходом по ссылками, скачиванием торрентов - проблемы в блокировщике рекламы AdBlock. #хорошегоДня!


Статистика раздачи
Размер:  744 MB   |    Зарегистрирован:  4 года 8 месяцев   |    .torrent скачан:  17 раз   |   
Раздают:  1  
   
Загрузка...
 
Автор Сообщение

Galfimbul

avatar Galfimbul


Тень во мраке / Descendant

Год выпуска: 2003
Страна: США
Жанр: триллер
Продолжительность: 01:22:07.040 (123176 frames)
Перевод: Профессиональный (многоголосый, закадровый)
Русские субтитры: нет

Режиссер: Кермит Кристман / Kermit Christman, Дел Тенни / Del Tenney

В ролях: Джереми Лондон /Jeremy London/, Кэтрин Хайгл /Katherine Heigl/, Ник Стабиле /Nick Stabile/, Уильям Кэтт /William Katt/, Ари Вервин /Arie Verveen/, Уитни Дилан /Whitney Dylan/, Маттиус Фарнсуорт /Matt Farnsworth/

Описание: 1839 год. Неведомый убийца нападает на молодую женщину в темном доме. Некто столь же неведомый спешит ей на помощь. Но уже слишком поздно. Женщина мертва, а ее вырванное сердце лежит на полу в луже крови... Более ста лет спустя романист Итан По (Джереми Лондон - "Путешествие к центру Земли"), далекий потомок мастера готического ужаса Эдгара По, знакомится с красавицей Энн Хеджроу (Кэтрин Хайгл - "Принц Валиант"), семья которой также ведет свою родословную от знаменитого писателя. Молодые люди полюбили друг друга. Казалось бы, все складывается прекрасно. Но почему начинают погибать или исчезать окружающие их люди? И почему с каждым днем Итан ведет себя все более странно? Есть ли связь между этими зловещими событиями, убийством, произошедшим в далеком 1839 году, и легендарным "проклятием Эдгара По"?

Качество: DVDRip
Формат: AVI
Видео кодек: XviD
Аудио кодек: МР3
Видео: 640x480 (1.33:1), 25 fps, XviD build 65 ~1128 kbps avg, 0.15 bit/pixel
Аудио: 48 kHz, MPEG Layer 3, 2 ch, ~128.00 kbps avg
General
Complete name : H:\003 Мои раздачи\Тень во мраке 745\ten_vo_mrake_745_[torrents.ru]_by_bm11.avi
Format : AVI
Format/Info : Audio Video Interleave
File size : 744 MiB
Duration : 1h 22mn
Overall bit rate : 1 266 Kbps
Director : bm11
Writing application : VirtualDubMod 1.5.10.2 (build 2540/release)

Video
ID : 0
Format : MPEG-4 Visual
Format profile : Advanced Simple@L5
Format settings, BVOP : Yes
Format settings, QPel : No
Format settings, GMC : No warppoints
Format settings, Matrix : Custom
Codec ID : XVID
Codec ID/Hint : XviD
Duration : 1h 22mn
Bit rate : 1 129 Kbps
Width : 640 pixels
Height : 480 pixels
Display aspect ratio : 4:3
Frame rate : 25.000 fps
Color space : YUV
Chroma subsampling : 4:2:0
Bit depth : 8 bits
Scan type : Progressive
Bits/(Pixel*Frame) : 0.147
Stream size : 663 MiB (89%)
Writing library : XviD 65

Audio
ID : 1
Format : MPEG Audio
Format version : Version 1
Format profile : Layer 3
Mode : Joint stereo
Mode extension : MS Stereo
Codec ID : 55
Codec ID/Hint : MP3
Duration : 1h 22mn
Bit rate mode : Constant
Bit rate : 128 Kbps
Channel(s) : 2 channels
Sampling rate : 48.0 KHz
Stream size : 75.2 MiB (10%)
Alignment : Aligned on interleaves
Interleave, duration : 40 ms (1.00 video frame)
Interleave, preload duration : 504 ms


Трекер:  [ 26-Фев-2013 10:59 ]

  

Скачать .torrent

Размер .torrent файла 15 KB


Размер: 744 MB
Хэш (hash) релиза: 7f18e47a287973eabc32f48a1206f0f7e9a3fb8d
Подписка на обновления:

Торренты, похожие на Тень во мраке Descendant скачать торрент

Форум Название Автор Размер S L Добавлен
Зарубежные фильмы до 2016 ·· Тень во мраке / Descendant (Кермит Кристман / Kermit Christman, Дел Тенни / Del Tenney) [2003, триллер, DVDRip] MVO + original + sub(rus) Galfimbul 15714945241.46 GB 0 0 1361819454

22:10

25-Фев-13

bot

Топик был перенесен в форум Зарубежное кино до 2012 года (Rips)

Перенес Galfimbul

Хотите добавить комментарий к записи скачать торрент Тень во мраке Descendant

!Обратная связь