Скачать через торрент музыку Красавчик 2 Zweiohrküken бесплатно без регистрации torrent

Если у вас наблюдаются проблемы со скриншотами, переходом по ссылками, скачиванием торрентов - проблемы в блокировщике рекламы AdBlock. #хорошегоДня!


Статистика раздачи
Размер:  1023 MB   |    Зарегистрирован:  6 лет 9 месяцев   |    .torrent скачан:  59 раз   |   
Раздают:  1  
   
Загрузка...
 
Автор Сообщение

AqvaGen


Красавчик 2 / Zweiohrküken

Жанр: Soundtrack / Score
Композитор: Dirk Reichardt
Год выпуска диска/фильма: 2009
Страна-производитель диска: Germany
Издатель (лейбл): Universal Music Group
Номер по каталогу: 00600753242117

Аудио кодек: FLAC (*.flac)
Тип рипа: image+.cue
Битрейт аудио: lossless
Продолжительность: 79:40, 69:26

Наличие сканов в содержимом раздачи: да (600dpi)

Треклист:
01. Plushgun / Dancin In A Minefield [0:03:32.32]
02. The Tunics / Shine On [0:03:58.24]
03. Longview / One More Try [0:03:36.85]
04. Now (Original Score) [0:02:31.13]
05. Jason Lytle / Yours Truly, The Commuter [0:02:54.58]
06. Better Than Ezra / Absolutely Still [0:03:54.54]
07. OneRepublic / Secrets [0:03:40.68]
08. Keri Hilson / I Like [0:03:37.01]
09. Pixie Lott / Cry Me Out [0:04:00.05]
10. Amy Macdonald / This is The Life [0:02:59.16]
11. Roman Fischer / Let It Go [0:02:40.02]
12. Paul van Dyk featuring Johnny McDaid / Home [0:03:19.58]
13. Shift It (Original Score) [0:02:03.21]
14. Silence (Original Score) [0:02:30.86]
15. Not Now (Original Score) [0:01:47.77]
16. Michelle Leonard / Where Did We Go Wrong [0:02:56.16]
17. Bangaloona (Original Score) [0:02:26.24]
18. Schiller / Ruhe [0:03:31.54]
19. Vandertone Vs. Daniel Nitt / Sleepless [0:03:15.05]
20. Stanfour / Tired Again [0:03:26.90]
21. Child Without Name (Original Score) [0:01:55.88]
22. Livingston / Broken [0:03:37.94]
23. Jason Lytle / Birds Encouraged Him [0:04:24.29]
24. What Goes Up... (Original Score) [0:02:19.40]
25. Martin Todsharow / Don't Go [0:04:41.22]
01. The World Is Crashin' Down (Original Score) [0:02:11.68]
02. My Mission Is U (Original Score) [0:01:57.21]
03. Without U (Original Score) [0:02:34.08]
04. Bangaloona (Score) - Silkroad Remix [0:04:58.42]
05. Shift It (Schore) - Silkroad Remix [0:04:29.77]
06. Vandertone Vs. Daniel Nitt / Sleepless Silkroads Club Remix [0:05:50.09]
07. Silence (Score) - Christian Weber Remix [0:05:12.46]
08. Without U (Score) - Nils Ruzicka Remix [0:04:55.81]
09. Where Did We Go Wrong - Mike Candys Remix [0:04:20.45]
10. Libertas - (Score 1 1/2 Ritter) - Silkroad's Laid Back Club Mix [0:04:27.64]
11. Paul van Dyk / For An Angel (PvD Remix 09) - Zweiohrkueken Version [0:03:59.53]
12. Andain / Beautiful Things - Gabriel & Dresden Unplugged Mix [0:09:45.93]
13. Neelix / Voices[0:03:46.12]
14. Dragzilla / Without You [0:03:39.25]
15. Guiseppe Ottaviani Featuring Faith / Fallen [0:07:18.18]
Доп. информация:
Звуковая дорожка к продолжению фильма Keinohrhasen / Красавчик. Предлагается Deluxe-Edition с бонусным диском римиксов из рук самого главного актера и режиссера Тиля Швайгера. Бонусный диск содержит 16-ый трек с данными (ноты к трем песням), который не входит в данную раздачу.

О фильме: Кинопоиск.ру, IMDB (английское название фильма: Rabbit Without Ears 2), домашняя страница фильма (на немецком).
 
Exact Audio Copy V0.99 prebeta 5 from 4. May 2009

EAC extraction logfile from 1. May 2010, 8:40

Various / Zweiohrkueken

Used drive : HL-DT-STDVDRAM_GSA-T20N Adapter: 0 ID: 0

Read mode : SecureUtilize accurate stream : YesDefeat audio cache : YesMake use of C2 pointers : No

Read offset correction : 667Overread into Lead-In and Lead-Out : NoFill up missing offset samples with silence : YesDelete leading and trailing silent blocks : NoNull samples used in CRC calculations : YesUsed interface : Installed external ASPI interface

Used output format : User Defined EncoderSelected bitrate : 768 kBit/sQuality : HighAdd ID3 tag : NoCommand line compressor : C:\Program Files\Exact Audio Copy\Flac\flac.exeAdditional command line options : -8 -V %s

TOC of the extracted CD

Track | Start | Length | Start sector | End sector --------------------------------------------------------- 1 | 0:00.00 | 3:32.24 | 0 | 15923 2 | 3:32.24 | 3:58.18 | 15924 | 33791 3 | 7:30.42 | 3:36.64 | 33792 | 50055 4 | 11:07.31 | 2:31.10 | 50056 | 61390 5 | 13:38.41 | 2:54.44 | 61391 | 74484 6 | 16:33.10 | 3:54.41 | 74485 | 92075 7 | 20:27.51 | 3:40.51 | 92076 | 108626 8 | 24:08.27 | 3:37.01 | 108627 | 124902 9 | 27:45.28 | 4:00.04 | 124903 | 142906 10 | 31:45.32 | 2:59.12 | 142907 | 156343 11 | 34:44.44 | 2:40.02 | 156344 | 168345 12 | 37:24.46 | 3:19.44 | 168346 | 183314 13 | 40:44.15 | 2:03.16 | 183315 | 192555 14 | 42:47.31 | 2:30.65 | 192556 | 203870 15 | 45:18.21 | 1:47.58 | 203871 | 211953 16 | 47:06.04 | 2:56.12 | 211954 | 225165 17 | 50:02.16 | 2:26.18 | 225166 | 236133 18 | 52:28.34 | 3:31.41 | 236134 | 251999 19 | 56:00.00 | 3:15.04 | 252000 | 266628 20 | 59:15.04 | 3:26.68 | 266629 | 282146 21 | 62:41.72 | 1:55.66 | 282147 | 290837 22 | 64:37.63 | 3:37.71 | 290838 | 307183 23 | 68:15.59 | 4:24.22 | 307184 | 327005 24 | 72:40.06 | 2:19.30 | 327006 | 337460 25 | 74:59.36 | 4:41.17 | 337461 | 358552

Range status and errors

Selected range

Filename C:\Music\Various - Zweiohrkueken.wav

Peak level 99.9 % Range quality 100.0 % Test CRC 0CDF0AE6 Copy CRC 0CDF0AE6 Copy OK

No errors occurred

AccurateRip summary

Track 1 accurately ripped (confidence 5) [2B64965A]Track 2 accurately ripped (confidence 5) [EF7DB256]Track 3 accurately ripped (confidence 5) [5D78E76A]Track 4 accurately ripped (confidence 5) [DAEE6805]Track 5 accurately ripped (confidence 5) [3C92A313]Track 6 accurately ripped (confidence 5) [D5BB3E3E]Track 7 accurately ripped (confidence 5) [F64F3B08]Track 8 accurately ripped (confidence 6) [FAF9DC3F]Track 9 accurately ripped (confidence 6) [47930E2A]Track 10 accurately ripped (confidence 6) [007B79E4]Track 11 accurately ripped (confidence 5) [59363446]Track 12 accurately ripped (confidence 5) [7B228977]Track 13 accurately ripped (confidence 5) [F8A7AC1B]Track 14 accurately ripped (confidence 5) [D253AE8C]Track 15 accurately ripped (confidence 5) [6C7EBC7A]Track 16 accurately ripped (confidence 5) [EEBB9791]Track 17 accurately ripped (confidence 5) [0552DF98]Track 18 accurately ripped (confidence 5) [F6F60E8D]Track 19 accurately ripped (confidence 5) [5C7ABD66]Track 20 accurately ripped (confidence 5) [7A83C4B1]Track 21 accurately ripped (confidence 5) [D90DB785]Track 22 accurately ripped (confidence 5) [81E2DECB]Track 23 accurately ripped (confidence 5) [F0664729]Track 24 accurately ripped (confidence 5) [8141798F]Track 25 accurately ripped (confidence 5) [B1B8668E]

All tracks accurately ripped

End of status report
 
Exact Audio Copy V0.99 prebeta 5 from 4. May 2009

EAC extraction logfile from 1. May 2010, 9:27

Zweiohrkueken / Zweiohrkueken Bonus (Mixed by Til Schweiger)

Used drive : HL-DT-STDVDRAM_GSA-T20N Adapter: 0 ID: 0

Read mode : SecureUtilize accurate stream : YesDefeat audio cache : YesMake use of C2 pointers : No

Read offset correction : 667Overread into Lead-In and Lead-Out : NoFill up missing offset samples with silence : YesDelete leading and trailing silent blocks : NoNull samples used in CRC calculations : YesUsed interface : Installed external ASPI interface

Used output format : User Defined EncoderSelected bitrate : 768 kBit/sQuality : HighAdd ID3 tag : NoCommand line compressor : C:\Program Files\Exact Audio Copy\Flac\flac.exeAdditional command line options : -8 -V %s

TOC of the extracted CD

Track | Start | Length | Start sector | End sector --------------------------------------------------------- 1 | 0:00.00 | 2:11.51 | 0 | 9875 2 | 2:11.51 | 1:57.16 | 9876 | 18666 3 | 4:08.67 | 2:34.06 | 18667 | 30222 4 | 6:42.73 | 4:58.32 | 30223 | 52604 5 | 11:41.30 | 4:29.58 | 52605 | 72837 6 | 16:11.13 | 5:50.07 | 72838 | 99094 7 | 22:01.20 | 5:12.35 | 99095 | 122529 8 | 27:13.55 | 4:55.61 | 122530 | 144715 9 | 32:09.41 | 4:20.34 | 144716 | 164249 10 | 36:30.00 | 4:27.48 | 164250 | 184322 11 | 40:57.48 | 3:59.40 | 184323 | 202287 12 | 44:57.13 | 9:45.70 | 202288 | 246232 13 | 54:43.08 | 3:46.09 | 246233 | 263191 14 | 58:29.17 | 3:39.19 | 263192 | 279635 15 | 62:08.36 | 7:18.14 | 279636 | 312499 16 | 71:58.50 | 2:04.12 | 323900 | 333211

Range status and errors

Selected range

Filename C:\Music\Zweiohrkueken - Zweiohrkueken Bonus (Mixed by Til Schweiger).wav

Peak level 98.8 % Range quality 100.0 % Test CRC B07AE353 Copy CRC B07AE353 Copy OK

No errors occurred

AccurateRip summary

Track 1 accurately ripped (confidence 1) [D56423A3]Track 2 accurately ripped (confidence 1) [30C6008B]Track 3 accurately ripped (confidence 1) [7C56839B]Track 4 accurately ripped (confidence 1) [E0DA9F6E]Track 5 accurately ripped (confidence 1) [226B3EB6]Track 6 accurately ripped (confidence 1) [24F3A2AD]Track 7 accurately ripped (confidence 1) [C48B9872]Track 8 accurately ripped (confidence 1) [35E34B0F]Track 9 accurately ripped (confidence 1) [3F6E4F0E]Track 10 accurately ripped (confidence 1) [EE7B4A3F]Track 11 accurately ripped (confidence 1) [AE3D4CA2]Track 12 accurately ripped (confidence 1) [F3D16CB6]Track 13 accurately ripped (confidence 1) [A410FD4D]Track 14 accurately ripped (confidence 1) [B11D38EC]Track 15 accurately ripped (confidence 1) [1501331F]

All tracks accurately ripped

End of status report


Трекер:  [ 21-Дек-2010 15:25 ]

  

Скачать .torrent

Размер .torrent файла 22 KB


Размер: 1023 MB
Хэш (hash) релиза: 0f71256d599496bba98ff0ada38629733cc51531

Торренты, похожие на Красавчик 2 Zweiohrküken скачать торрент

Форум Название Автор Размер S L Добавлен
Саундтреки к фильмам и мультфильмам (mp3) ·· (Soundtrack) Красавчик 2 / Zweiohrküken (Deluxe Edition) (Dirk Reichardt & VA) - 2010, MP3 (tracks), VBR ~195 kbps Phoenix 217075703207 MB 0 0 1292264996

21:29

13-Дек-10

bot

Топик был перенесен в форум Саундтреки к фильмам и мультфильмам (lossless)

Перенес AqvaGen

Хотите добавить комментарий к записи скачать торрент Красавчик 2 Zweiohrküken

!Обратная связь