Скачать порно через торрент Вспомним старое. UnionPeer.org бесплатно онлайн HD качество

Скачать новое порно 2015, 2014 новинки через торрент UnionPeer.org

Порно торрент бесплатно ЮнионПир.орг

Если у вас наблюдаются проблемы со скриншотами, переходом по ссылками, скачиванием торрентов - проблемы в блокировщике рекламы AdBlock. #хорошегоДня!


Статистика раздачи
Размер:  142 MB   |    Зарегистрирован:  4 года 5 месяцев   |    .torrent скачан:  301 раз   |   
Раздают:  1  
   
Загрузка...
 
Автор Сообщение

Galfimbul

avatar Galfimbul


Вспомним старое.

Год производства: 1999 г.
Жанр: amateur
Продолжительность: 01:24:00

Описание: Вспомним старое.

Качество видео: CamRip
Формат видео: AVI
Видео кодек: MPEG1
Аудио кодек: MP3
Видео: MSMPEG4v2 320x240 25fps 191kbps
Аудио: MP3 22050Hz mono 32kbps
Video
ID : 0
Format : MPEG-4 Visual
Codec ID : MP42
Codec ID/Info : Microsoft MPEG-4 v2 (pre-standard)
Codec ID/Hint : Microsoft
Duration : 1h 23mn
Bit rate : 191 Kbps
Width : 320 pixels
Height : 240 pixels
Display aspect ratio : 4:3
Frame rate : 25.000 fps
Compression mode : Lossy
Bits/(Pixel*Frame) : 0.100
Stream size : 115 MiB (81%)

Audio
ID : 1
Format : MPEG Audio
Format version : Version 2
Format profile : Layer 3
Codec ID : 55
Codec ID/Hint : MP3
Duration : 15mn 14s
Source duration : 1h 23mn
Bit rate mode : Constant
Bit rate : 32.0 Kbps
Channel(s) : 1 channel
Sampling rate : 22.05 KHz
Compression mode : Lossy
Stream size : 19.2 MiB (14%)
Alignment : Aligned on interleaves
Interleave, duration : 26 ms (0.65 video frame)
Writing library : LAME3.97UUUUUUUUUUU0


Трекер:  [ 26-Фев-2013 10:37 ]

  

Скачать .torrent

Размер .torrent файла 22 KB


Размер: 142 MB
Хэш (hash) релиза: d9dc4a9d9ecfdbe927ed8c8fc1c5bcbc65ec731d

bot

Топик был перенесен в форум Видеоролики

Перенес Galfimbul

Хотите добавить комментарий к записи скачать торрент Вспомним старое.

!Обратная связь