Скачать порно через торрент Олеся у книжного шкафа UnionPeer.org бесплатно онлайн HD качество

Скачать новое порно 2015, 2014 новинки через торрент UnionPeer.org

Порно торрент бесплатно ЮнионПир.орг

Если у вас наблюдаются проблемы со скриншотами, переходом по ссылками, скачиванием торрентов - проблемы в блокировщике рекламы AdBlock. #хорошегоДня!


Статистика раздачи
Размер:  762 MB   |    Зарегистрирован:  4 года 7 месяцев   |    .torrent скачан:  1142 раза   |   
Раздают:  1  
   
Загрузка...
 
Автор Сообщение

Galfimbul

avatar Galfimbul


Олеся у книжного шкафа

Год производства: 2011 г.
Жанр: Amateur, Teen, Solo
Продолжительность: 00:12:43

Описание: Раннее видео Олеси. Мастурбация на камеру, рядом с книжным шкафом. Начитанность девушки вызывает уважение.

Тип HD видео: 720p
Качество видео: SiteRip
Формат видео: MOV
Видео кодек: QuickTime
Аудио кодек: AAC
General
Complete name                  : 100_1184.MOV
Format                         : QuickTime
Format/Info                    : Original Apple specifications
File size                      : 762 MiB
Duration                       : 12mn 43s
Overall bit rate               : 8 370 Kbps
Movie name/More                : EASTMAN KODAK COMPANY  KODAK EASYSHARE M580 DIGITAL CAMERA
Encoded date                   : UTC 2011-12-19 10:58:29
Tagged date                    : UTC 2011-12-19 10:58:29
Origin                         : Digital Camera

Video
ID                             : 1
Format                         : AVC
Format/Info                    : Advanced Video Codec
Format profile                 : Main@L4.2
Format settings, CABAC         : Yes
Format settings, ReFrames      : 2 frames
Format settings, GOP           : M=3, N=8
Codec ID                       : avc1
Codec ID/Info                  : Advanced Video Coding
Duration                       : 12mn 43s
Source duration                : 12mn 43s
Bit rate                       : 8 295 Kbps
Width                          : 1 280 pixels
Height                         : 720 pixels
Display aspect ratio           : 16:9
Frame rate mode                : Constant
Frame rate                     : 30.000 fps
Color space                    : YUV
Chroma subsampling             : 4:2:0
Bit depth                      : 8 bits
Scan type                      : Progressive
Bits/(Pixel*Frame)             : 0.300
Stream size                    : 755 MiB (99%)
Source stream size             : 755 MiB (99%)
Language                       : Japanese
Encoded date                   : UTC 2011-12-19 10:58:29
Tagged date                    : UTC 2011-12-19 10:58:29
mdhd_Duration                  : 763327

Audio
ID                             : 2
Format                         : AAC
Format/Info                    : Advanced Audio Codec
Format profile                 : LC
Codec ID                       : 40
Duration                       : 12mn 43s
Bit rate mode                  : Constant
Bit rate                       : 66.2 Kbps
Channel(s)                     : 1 channel
Channel positions              : Front: C
Sampling rate                  : 48.0 KHz
Compression mode               : Lossy
Stream size                    : 5.96 MiB (1%)
Language                       : Japanese
Encoded date                   : UTC 2011-12-19 10:58:29
Tagged date                    : UTC 2011-12-19 10:58:29
mdhd_Duration                  : 763327


Трекер:  [ 26-Фев-2013 10:36 ]

  

Скачать .torrent

Размер .torrent файла 15 KB


Размер: 762 MB
Хэш (hash) релиза: 3f3de0d09dcdfaa89e38e830904b2e9c0cdcc2fb

bot

Топик был перенесен в форум Видеоролики

Перенес Galfimbul

Хотите добавить комментарий к записи скачать торрент Олеся у книжного шкафа

!Обратная связь