Скачать через торрент музыку Блудливая Калифорния Californication: Season 3 - 2009 бесплатно без регистрации torrent

Если у вас наблюдаются проблемы со скриншотами, переходом по ссылками, скачиванием торрентов - проблемы в блокировщике рекламы AdBlock. #хорошегоДня!


Статистика раздачи
Размер:  365 MB   |    Зарегистрирован:  6 лет 8 месяцев   |    .torrent скачан:  51 раз   |   
Раздают:  1  
   
Загрузка...
 
Автор Сообщение

AqvaGen


Блудливая Калифорния / Californication: Season 3

Жанр: Soundtrack
Год выпуска диска: 2009
Производитель диска: Lakeshore Records
Аудио кодек: FLAC
Тип рипа: tracks+.cue
Битрейт аудио: lossless
Продолжительность: 00:54:49

01 - Rob Zombie - Pu**y Liquor (04:47)
02 - Black Joe Lewis & The Honeybears - B*tch, I Love You (02:41)
03 - Danielle Duval - You're The One That I Want (04:44)
04 - The Monks - Boys Are Boys And Girls Are Choice (01:25)
05 - John Neal - Real Big Leaguer (04:19)
06 - Widespread Panic - Werewolves Of London (07:38)
07 - Jimmy LaFave - Not Dark Yet (06:48)
08 - G.G. Allin & The Criminal Quartet - Carmelita (02:58)
09 - Spider Problem - Cha Cha (Be My New BF) (Rock Remix) (03:07)
10 - Sleepy Sun - Lord (05:42)
11 - Blind Pilot - 3 Rounds And A Sound (04:28)
12 - Stuffy Shmitt - Can't Find My Way Home (04:00)
13 - Damhnait Doyle - I Want You To Want Me (02:58)

 
Exact Audio Copy V0.99 prebeta 5 from 4. May 2009

EAC extraction logfile from 26. December 2009, 10:13

Various / Season 3: Music from the Showtime Series Californication

Used drive : PHILIPS DVD+-RW DVD8801 Adapter: 0 ID: 1

Read mode : SecureUtilize accurate stream : YesDefeat audio cache : YesMake use of C2 pointers : No

Read offset correction : 618Overread into Lead-In and Lead-Out : NoFill up missing offset samples with silence : YesDelete leading and trailing silent blocks : NoNull samples used in CRC calculations : YesUsed interface : Native Win32 interface for Win NT & 2000Gap handling : Not detected, thus appended to previous track

Used output format : User Defined EncoderSelected bitrate : 192 kBit/sQuality : HighAdd ID3 tag : NoCommand line compressor : C:\Program Files\Exact Audio Copy\Flac\flac.exeAdditional command line options : -8 -A tukey(0.25) -A gauss(0.1875) -b 4096 -V -T "artist=%a" -T "title=%t" -T "album=%g" -T "date=%y" -T "tracknumber=%n" -T "genre=%m" %s

TOC of the extracted CD

Track | Start | Length | Start sector | End sector --------------------------------------------------------- 1 | 0:00.00 | 4:47.33 | 0 | 21557 2 | 4:47.33 | 2:41.15 | 21558 | 33647 3 | 7:28.48 | 4:44.06 | 33648 | 54953 4 | 12:12.54 | 1:24.42 | 54954 | 61295 5 | 13:37.21 | 4:19.08 | 61296 | 80728 6 | 17:56.29 | 7:38.27 | 80729 | 115105 7 | 25:34.56 | 6:47.64 | 115106 | 145694 8 | 32:22.45 | 2:58.31 | 145695 | 159075 9 | 35:21.01 | 3:07.09 | 159076 | 173109 10 | 38:28.10 | 5:41.39 | 173110 | 198723 11 | 44:09.49 | 4:27.39 | 198724 | 218787 12 | 48:37.13 | 3:59.74 | 218788 | 236786 13 | 52:37.12 | 2:58.29 | 236787 | 250165

Track 1

Filename D:\EACtmp\ 01 - Rob Zombie - Puxxy Liquor.wav

Peak level 97.7 % Track quality 100.0 % Copy CRC D5327FA3 Track not present in AccurateRip database Copy OK

None of the tracks are present in the AccurateRip database

No errors occurred

End of status report

------------------------------------------------------------

Exact Audio Copy V0.99 prebeta 5 from 4. May 2009

EAC extraction logfile from 26. December 2009, 11:16

Various / Season 3: Music from the Showtime Series Californication

Used drive : PHILIPS DVD+-RW DVD8801 Adapter: 0 ID: 1

Read mode : SecureUtilize accurate stream : YesDefeat audio cache : YesMake use of C2 pointers : No

Read offset correction : 618Overread into Lead-In and Lead-Out : NoFill up missing offset samples with silence : YesDelete leading and trailing silent blocks : NoNull samples used in CRC calculations : YesUsed interface : Native Win32 interface for Win NT & 2000Gap handling : Appended to previous track

Used output format : User Defined EncoderSelected bitrate : 192 kBit/sQuality : HighAdd ID3 tag : NoCommand line compressor : C:\Program Files\Exact Audio Copy\Flac\flac.exeAdditional command line options : -8 -A tukey(0.25) -A gauss(0.1875) -b 4096 -V -T "artist=%a" -T "title=%t" -T "album=%g" -T "date=%y" -T "tracknumber=%n" -T "genre=%m" %s

TOC of the extracted CD

Track | Start | Length | Start sector | End sector --------------------------------------------------------- 1 | 0:00.00 | 4:47.33 | 0 | 21557 2 | 4:47.33 | 2:41.15 | 21558 | 33647 3 | 7:28.48 | 4:44.06 | 33648 | 54953 4 | 12:12.54 | 1:24.42 | 54954 | 61295 5 | 13:37.21 | 4:19.08 | 61296 | 80728 6 | 17:56.29 | 7:38.27 | 80729 | 115105 7 | 25:34.56 | 6:47.64 | 115106 | 145694 8 | 32:22.45 | 2:58.31 | 145695 | 159075 9 | 35:21.01 | 3:07.09 | 159076 | 173109 10 | 38:28.10 | 5:41.39 | 173110 | 198723 11 | 44:09.49 | 4:27.39 | 198724 | 218787 12 | 48:37.13 | 3:59.74 | 218788 | 236786 13 | 52:37.12 | 2:58.29 | 236787 | 250165

Track 1

Filename D:\EACtmp\ 01 - Rob Zombie - Puxxy Liquor.wav

Pre-gap length 0:00:02.00

Peak level 97.7 % Track quality 100.0 % Test CRC D5327FA3 Copy CRC D5327FA3 Track not present in AccurateRip database Copy OK

Track 2

Filename D:\EACtmp\ 02 - Black Joe Lewis & The Honeybears - Bxtch, I Love You.wav

Pre-gap length 0:00:03.86

Peak level 97.7 % Track quality 100.0 % Test CRC FDAA6A00 Copy CRC FDAA6A00 Track not present in AccurateRip database Copy OK

Track 3

Filename D:\EACtmp\ 03 - Danielle Duval - You're The One That I Want.wav

Pre-gap length 0:00:03.86

Peak level 97.7 % Track quality 100.0 % Test CRC B94400F8 Copy CRC B94400F8 Track not present in AccurateRip database Copy OK

Track 4

Filename D:\EACtmp\ 04 - The Monks - Boys Are Boys And Girls Are Choice.wav

Pre-gap length 0:00:03.86

Peak level 97.7 % Track quality 100.0 % Test CRC D02358FE Copy CRC D02358FE Track not present in AccurateRip database Copy OK

Track 5

Filename D:\EACtmp\ 05 - John Neal - Real Big Leaguer.wav

Pre-gap length 0:00:03.86

Peak level 97.7 % Track quality 100.0 % Test CRC CA63C0B8 Copy CRC CA63C0B8 Track not present in AccurateRip database Copy OK

Track 6

Filename D:\EACtmp\ 06 - Widespread Panic - Werewolves Of London.wav

Pre-gap length 0:00:03.86

Peak level 97.7 % Track quality 100.0 % Test CRC 0FD29E49 Copy CRC 0FD29E49 Track not present in AccurateRip database Copy OK

Track 7

Filename D:\EACtmp\ 07 - Jimmy LaFave - Not Dark Yet.wav

Pre-gap length 0:00:03.86

Peak level 97.7 % Track quality 100.0 % Test CRC 1E20CED8 Copy CRC 1E20CED8 Track not present in AccurateRip database Copy OK

Track 8

Filename D:\EACtmp\ 08 - G.G. Allin & The Criminal Quartet - Carmelita.wav

Pre-gap length 0:00:03.86

Peak level 97.7 % Track quality 100.0 % Test CRC 2EEB1294 Copy CRC 2EEB1294 Track not present in AccurateRip database Copy OK

Track 9

Filename D:\EACtmp\ 09 - Spider Problem - Cha Cha (Be My New BF) (Rock Remix).wav

Pre-gap length 0:00:03.86

Peak level 97.7 % Track quality 100.0 % Test CRC 0FE6A69A Copy CRC 0FE6A69A Track not present in AccurateRip database Copy OK

Track 10

Filename D:\EACtmp\ 10 - Sleepy Sun - Lord.wav

Pre-gap length 0:00:03.86

Peak level 97.7 % Track quality 100.0 % Test CRC 43BABB21 Copy CRC 43BABB21 Track not present in AccurateRip database Copy OK

Track 11

Filename D:\EACtmp\ 11 - Blind Pilot - 3 Rounds And A Sound.wav

Pre-gap length 0:00:03.86

Peak level 97.7 % Track quality 100.0 % Test CRC 7884F2E7 Copy CRC 7884F2E7 Track not present in AccurateRip database Copy OK

Track 12

Filename D:\EACtmp\ 12 - Stuffy Shmitt - Can't Find My Way Home.wav

Pre-gap length 0:00:03.86

Peak level 97.7 % Track quality 100.0 % Test CRC 56D9A41C Copy CRC 56D9A41C Track not present in AccurateRip database Copy OK

Track 13

Filename D:\EACtmp\ 13 - Damhnait Doyle - I Want You To Want Me.wav

Pre-gap length 0:00:03.86

Peak level 94.7 % Track quality 100.0 % Test CRC 585B3097 Copy CRC 585B3097 Track not present in AccurateRip database Copy OK

None of the tracks are present in the AccurateRip database

No errors occurred

End of status report
 
REM GENRE SoundtrackREM DATE 2009REM DISCID B20D070DREM COMMENT "ExactAudioCopy v0.99pb5"PERFORMER "Various"TITLE "Season 3: Music from the Showtime Series Californication"FILE "01 - Rob Zombie - Puxxy Liquor.wav" WAVE TRACK 01 AUDIO TITLE "Pu**y Liquor" PERFORMER "Rob Zombie" INDEX 01 00:00:00 TRACK 02 AUDIO TITLE "B*tch, I Love You" PERFORMER "Black Joe Lewis & The Honeybears" FLAGS DCP INDEX 00 04:43:43FILE "02 - Black Joe Lewis & The Honeybears - Bxtch, I Love You.wav" WAVE INDEX 01 00:00:00 TRACK 03 AUDIO TITLE "You're The One That I Want" PERFORMER "Danielle Duval" FLAGS DCP INDEX 00 02:37:25FILE "03 - Danielle Duval - You're The One That I Want.wav" WAVE INDEX 01 00:00:00 TRACK 04 AUDIO TITLE "Boys Are Boys And Girls Are Choice" PERFORMER "The Monks" FLAGS DCP INDEX 00 04:40:16FILE "04 - The Monks - Boys Are Boys And Girls Are Choice.wav" WAVE INDEX 01 00:00:00 TRACK 05 AUDIO TITLE "Real Big Leaguer" PERFORMER "John Neal" FLAGS DCP INDEX 00 01:20:52FILE "05 - John Neal - Real Big Leaguer.wav" WAVE INDEX 01 00:00:00 TRACK 06 AUDIO TITLE "Werewolves Of London" PERFORMER "Widespread Panic" FLAGS DCP INDEX 00 04:15:18FILE "06 - Widespread Panic - Werewolves Of London.wav" WAVE INDEX 01 00:00:00 TRACK 07 AUDIO TITLE "Not Dark Yet" PERFORMER "Jimmy LaFave" FLAGS DCP INDEX 00 07:34:37FILE "07 - Jimmy LaFave - Not Dark Yet.wav" WAVE INDEX 01 00:00:00 TRACK 08 AUDIO TITLE "Carmelita" PERFORMER "G.G. Allin & The Criminal Quartet" FLAGS DCP INDEX 00 06:43:74FILE "08 - G.G. Allin & The Criminal Quartet - Carmelita.wav" WAVE INDEX 01 00:00:00 TRACK 09 AUDIO TITLE "Cha Cha (Be My New BF) (Rock Remix)" PERFORMER "Spider Problem" FLAGS DCP INDEX 00 02:54:41FILE "09 - Spider Problem - Cha Cha (Be My New BF) (Rock Remix).wav" WAVE INDEX 01 00:00:00 TRACK 10 AUDIO TITLE "Lord" PERFORMER "Sleepy Sun" FLAGS DCP INDEX 00 03:03:19FILE "10 - Sleepy Sun - Lord.wav" WAVE INDEX 01 00:00:00 TRACK 11 AUDIO TITLE "3 Rounds And A Sound" PERFORMER "Blind Pilot" FLAGS DCP INDEX 00 05:37:49FILE "11 - Blind Pilot - 3 Rounds And A Sound.wav" WAVE INDEX 01 00:00:00 TRACK 12 AUDIO TITLE "Can't Find My Way Home" PERFORMER "Stuffy Shmitt" FLAGS DCP INDEX 00 04:23:49FILE "12 - Stuffy Shmitt - Can't Find My Way Home.wav" WAVE INDEX 01 00:00:00 TRACK 13 AUDIO TITLE "I Want You To Want Me" PERFORMER "Damhnait Doyle" FLAGS DCP INDEX 00 03:56:09FILE "13 - Damhnait Doyle - I Want You To Want Me.wav" WAVE INDEX 01 00:00:00



Трекер:  [ 29-Дек-2010 22:39 ]

  

Скачать .torrent

Размер .torrent файла 16 KB


Размер: 365 MB
Хэш (hash) релиза: 29835a258e7e1d1919548f87f1aef729e06d5e9c

Торренты, похожие на Блудливая Калифорния Californication: Season 3 - 2009 скачать торрент

Форум Название Автор Размер S L Добавлен
Саундтреки к фильмам и мультфильмам (mp3) ·· (Soundtrack) Блудливая Калифорния: cезон 3 / Californication: Season 3 - 2009, MP3, 320 kbps Phoenix 133595889127 MB 0 0 1292265091

21:31

13-Дек-10

bot

Топик был перенесен в форум Саундтреки к фильмам и мультфильмам (lossless)

Перенес AqvaGen

Хотите добавить комментарий к записи скачать торрент Блудливая Калифорния Californication: Season 3 - 2009

!Обратная связь