Скачать через торрент музыку Ennio Morricone: The Gangster Collection - 2CD - 1999, FLAC бесплатно без регистрации torrent

Если у вас наблюдаются проблемы со скриншотами, переходом по ссылками, скачиванием торрентов - проблемы в блокировщике рекламы AdBlock. #хорошегоДня!


Статистика раздачи
Размер:  624 MB   |    Зарегистрирован:  6 лет 2 месяца   |    .torrent скачан:  48 раз   |   
Раздают:  1  
   
Загрузка...
 
Автор Сообщение

Galfimbul

avatar Galfimbul


Ennio Morricone: The Gangster Collection - 2CD

Жанр: Score
Год выпуска диска: 1999
Страна-производитель диска: USA
Издатель (лейбл): DRG
Номер по каталогу: 32925
Аудио кодек: FLAC (*.flac)
Тип рипа: tracks+.cue
Битрейт аудио: lossless
Продолжительность: 55.47 + 57.00 min.
Источник: собственный рип
Наличие сканов в содержимом раздачи: да
Треклист:


CD 1

01 - The Ballad of Sacco and Vanzetti (from 'Sacco And Vanzetti' 1971)
02 - Violent City (from 'Violent City' 1970)
03 - Extreme Moment (from 'Violent City' 1970)
04 - The Sicilian Clan (from 'The Sicilian Clan' 1969)
05 - Deborah's Theme (from 'Once Upon A Time In America' 1983)
06 - Al Capone (from 'The Untouchables' 1987)
07 - The Untouchables - End Credits (from 'The Untouchables' 1987)
08 - Act of Faith (from 'Bugsy' 1991)
09 - Terrorists! (from 'The Human Factor' 1975)
10 - The Iron Mayor (from 'The Iron Mayor' 1977)
11 - A Net of Protections (from 'The Iron Mayor' 1977)
12 - The State's Repression (from 'The Iron Mayor' 1977)
13 - Drought (from 'The Iron Mayor' 1977)
14 - Theme of Memories (from 'The Iron Mayor' 1977)
15 - Tacit Complicity (from 'The Iron Mayor' 1977)
16 - Song of Sicily (from 'The Iron Mayor' 1977)
17 - The Mafia (from 'The Iron Mayor' 1977)
18 - Secret Reunion (from 'The Iron Mayor' 1977)

CD 2

01 - Goodbye Palermo (from 'Father Of The Godfather' 1978)
02 - Corleone (from 'Father Of The Godfather' 1978)
03 - Conspiration (from 'Father Of The Godfather' 1978)
04 - Goodbye to Palermo (Alternate version) (from 'Father Of The Godfather' 1978) *
05 - The Penitent (from 'The Penitent' 1985)
06 - Message (from 'The Penitent' 1985)
07 - Far Memories of Sicily (from 'The Penitent' 1985)
08 - Final Event (from 'The Penitent' 1985)
09 - The Penitent (Alternate Version) (from 'The Penitent' 1985) *
10 - Degradation (from 'To Forget Palermo' 1990)
11 - Insinuation (from 'To Forget Palermo' 1990)
12 - To Come Back to Palermo (from 'To Forget Palermo' 1990)
13 - Machine Gin McCain (from 'Machine Gun McCain' 1969)
14 - Machine Gin McCain #2 (from 'Machine Gun McCain' 1969) *
15 - Machine Gin McCain (Aternative Version) (from 'Machine Gun McCain' 1969) *
16 - The Ballad of Hank McCain (from 'Machine Gun McCain' 1969)
17 - Strangled Lives (from 'Strangled Lives' 1996)
18 - Colonial City (from 'Strangled Lives' 1996)
19 - HIdden Symptons (from 'Strangled Lives' 1996)
20 - The Other Octopus (from 'Strangled Lives' 1996)

* - Previously unreleased
 
Exact Audio Copy V0.99 prebeta 4 from 23. January 2008

Отчёт EAC об извлечении, выполненном 23. августа 2010, 20:05

Ennio Morricone / The Gangster Collection

Дисковод: HL-DT-STDVDRAM GSA-E40N Adapter: 1 ID: 0

Режим чтения : ДостоверностьИспользование точного потока : ДаОтключение кэша аудио : ДаИспользование указателей C2 : Нет

Коррекция смещения при чтении : 667Способность читать области Lead-in и Lead-out : НетЗаполнение пропущенных сэмплов тишиной : ДаУдаление блоков с тишиной в начале и конце : НетПри вычислениях CRC использовались нулевые сэмплы : ДаИнтерфейс : Установленный внешний ASPI-интерфейсОбработка зазоров : Добавлено к предыдущему треку

Выходной формат : Пользовательский кодировщикВыбранный битрейт : 768 kBit/sКачество : ВысокийДобавление ID3-тэга : НетУтилита сжатия : C:\Program Files\Exact Audio Copy\FLAC\FLAC.EXEДополнительные параметры : -6 -V -T "ARTIST=%a" -T "TITLE=%t" -T "ALBUM=%g" -T "DATE=%y" -T "TRACKNUMBER=%n" -T "GENRE=%m" -T "COMMENT=%e" %s -o %d

TOC извлечённого CD

Трек | Старт | Длительность | Начальный сектор | Конечный сектор --------------------------------------------------------------------- 1 | 0:00.00 | 3:25.10 | 0 | 15384 2 | 3:25.10 | 2:24.26 | 15385 | 26210 3 | 5:49.36 | 3:18.53 | 26211 | 41113 4 | 9:08.14 | 3:37.12 | 41114 | 57400 5 | 12:45.26 | 4:26.53 | 57401 | 77403 6 | 17:12.04 | 2:55.04 | 77404 | 90532 7 | 20:07.08 | 3:11.25 | 90533 | 104882 8 | 23:18.33 | 3:12.01 | 104883 | 119283 9 | 26:30.34 | 11:31.32 | 119284 | 171140 10 | 38:01.66 | 2:28.04 | 171141 | 182244 11 | 40:29.70 | 2:08.28 | 182245 | 191872 12 | 42:38.23 | 3:29.07 | 191873 | 207554 13 | 46:07.30 | 1:55.22 | 207555 | 216201 14 | 48:02.52 | 1:30.48 | 216202 | 222999 15 | 49:33.25 | 1:17.37 | 223000 | 228811 16 | 50:50.62 | 2:40.46 | 228812 | 240857 17 | 53:31.33 | 0:52.20 | 240858 | 244777 18 | 54:23.53 | 1:21.38 | 244778 | 250890

Трек 1

Имя файла H:\Торрентс.ру\Morricone - Gangster Collection 2CD\CD1\01 - The Ballad of Sacco and Vanzetti.wav

Длина предзазора 0:00:02.00

Пиковый уровень 85.8 % Качество трека 99.9 % CRC теста 06ABAFB7 CRC копии 06ABAFB7 Копирование... OK

Трек 2

Имя файла H:\Торрентс.ру\Morricone - Gangster Collection 2CD\CD1\02 - Violent City.wav

Длина предзазора 0:00:01.94

Пиковый уровень 91.9 % Качество трека 100.0 % CRC теста A731F400 CRC копии A731F400 Копирование... OK

Трек 3

Имя файла H:\Торрентс.ру\Morricone - Gangster Collection 2CD\CD1\03 - Extreme Moment.wav

Длина предзазора 0:00:01.37

Пиковый уровень 87.1 % Качество трека 100.0 % CRC теста C1E390A9 CRC копии C1E390A9 Копирование... OK

Трек 4

Имя файла H:\Торрентс.ру\Morricone - Gangster Collection 2CD\CD1\04 - The Sicilian Clan.wav

Длина предзазора 0:00:03.06

Пиковый уровень 68.7 % Качество трека 99.9 % CRC теста 268ACE07 CRC копии 268ACE07 Копирование... OK

Трек 5

Имя файла H:\Торрентс.ру\Morricone - Gangster Collection 2CD\CD1\05 - Deborah's Theme.wav

Длина предзазора 0:00:01.52

Пиковый уровень 96.6 % Качество трека 100.0 % CRC теста 736F5B1C CRC копии 736F5B1C Копирование... OK

Трек 6

Имя файла H:\Торрентс.ру\Morricone - Gangster Collection 2CD\CD1\06 - Al Capone.wav

Длина предзазора 0:00:03.21

Пиковый уровень 71.7 % Качество трека 100.0 % CRC теста 892415C8 CRC копии 892415C8 Копирование... OK

Трек 7

Имя файла H:\Торрентс.ру\Morricone - Gangster Collection 2CD\CD1\07 - The Untouchables - End Credits.wav

Длина предзазора 0:00:01.64

Пиковый уровень 96.6 % Качество трека 100.0 % CRC теста E4FB7114 CRC копии E4FB7114 Копирование... OK

Трек 8

Имя файла H:\Торрентс.ру\Morricone - Gangster Collection 2CD\CD1\08 - Act of Faith.wav

Длина предзазора 0:00:01.98

Пиковый уровень 79.1 % Качество трека 100.0 % CRC теста C76AF361 CRC копии C76AF361 Копирование... OK

Трек 9

Имя файла H:\Торрентс.ру\Morricone - Gangster Collection 2CD\CD1\09 - Terrorists!.wav

Длина предзазора 0:00:02.56

Пиковый уровень 84.6 % Качество трека 100.0 % CRC теста CDFD4A7A CRC копии CDFD4A7A Копирование... OK

Трек 10

Имя файла H:\Торрентс.ру\Morricone - Gangster Collection 2CD\CD1\10 - The Iron Mayor.wav

Длина предзазора 0:00:02.21

Пиковый уровень 96.6 % Качество трека 100.0 % CRC теста 0D687B1B CRC копии 0D687B1B Копирование... OK

Трек 11

Имя файла H:\Торрентс.ру\Morricone - Gangster Collection 2CD\CD1\11 - A Net of Protections.wav

Длина предзазора 0:00:01.93

Пиковый уровень 78.4 % Качество трека 100.0 % CRC теста C32055FC CRC копии C32055FC Копирование... OK

Трек 12

Имя файла H:\Торрентс.ру\Morricone - Gangster Collection 2CD\CD1\12 - The State's Repression.wav

Длина предзазора 0:00:02.66

Пиковый уровень 93.5 % Качество трека 100.0 % CRC теста 66374A72 CRC копии 66374A72 Копирование... OK

Трек 13

Имя файла H:\Торрентс.ру\Morricone - Gangster Collection 2CD\CD1\13 - Drought.wav

Длина предзазора 0:00:02.54

Пиковый уровень 84.1 % Качество трека 100.0 % CRC теста 9FF56CAF CRC копии 9FF56CAF Копирование... OK

Трек 14

Имя файла H:\Торрентс.ру\Morricone - Gangster Collection 2CD\CD1\14 - Theme of Memories.wav

Длина предзазора 0:00:02.53

Пиковый уровень 38.1 % Качество трека 99.8 % CRC теста 28A525F5 CRC копии 28A525F5 Копирование... OK

Трек 15

Имя файла H:\Торрентс.ру\Morricone - Gangster Collection 2CD\CD1\15 - Tacit Complicity.wav

Длина предзазора 0:00:02.18

Пиковый уровень 57.0 % Качество трека 100.0 % CRC теста D5948F19 CRC копии D5948F19 Копирование... OK

Трек 16

Имя файла H:\Торрентс.ру\Morricone - Gangster Collection 2CD\CD1\16 - Song of Sicily.wav

Длина предзазора 0:00:02.84

Пиковый уровень 78.1 % Качество трека 100.0 % CRC теста E30B7D40 CRC копии E30B7D40 Копирование... OK

Трек 17

Имя файла H:\Торрентс.ру\Morricone - Gangster Collection 2CD\CD1\17 - The Mafia.wav

Длина предзазора 0:00:01.86

Пиковый уровень 86.3 % Качество трека 100.0 % CRC теста FE869AB2 CRC копии FE869AB2 Копирование... OK

Трек 18

Имя файла H:\Торрентс.ру\Morricone - Gangster Collection 2CD\CD1\18 - Secret Reunion.wav

Длина предзазора 0:00:01.54

Пиковый уровень 85.8 % Качество трека 100.0 % CRC теста BE6DCFC6 CRC копии BE6DCFC6 Копирование... OK

Ошибок не произошло

Конец отчёта
 
Exact Audio Copy V0.99 prebeta 4 from 23. January 2008

Отчёт EAC об извлечении, выполненном 24. августа 2010, 14:06

Ennio Morricone / The Gangster Collection

Дисковод: HL-DT-STDVDRAM GSA-E40N Adapter: 1 ID: 0

Режим чтения : ДостоверностьИспользование точного потока : ДаОтключение кэша аудио : ДаИспользование указателей C2 : Нет

Коррекция смещения при чтении : 667Способность читать области Lead-in и Lead-out : НетЗаполнение пропущенных сэмплов тишиной : ДаУдаление блоков с тишиной в начале и конце : НетПри вычислениях CRC использовались нулевые сэмплы : ДаИнтерфейс : Установленный внешний ASPI-интерфейсОбработка зазоров : Добавлено к предыдущему треку

Выходной формат : Пользовательский кодировщикВыбранный битрейт : 768 kBit/sКачество : ВысокийДобавление ID3-тэга : НетУтилита сжатия : C:\Program Files\Exact Audio Copy\FLAC\FLAC.EXEДополнительные параметры : -6 -V -T "ARTIST=%a" -T "TITLE=%t" -T "ALBUM=%g" -T "DATE=%y" -T "TRACKNUMBER=%n" -T "GENRE=%m" -T "COMMENT=%e" %s -o %d

TOC извлечённого CD

Трек | Старт | Длительность | Начальный сектор | Конечный сектор --------------------------------------------------------------------- 1 | 0:00.00 | 3:44.26 | 0 | 16825 2 | 3:44.26 | 4:10.48 | 16826 | 35623 3 | 7:54.74 | 2:21.53 | 35624 | 46251 4 | 10:16.52 | 1:29.41 | 46252 | 52967 5 | 11:46.18 | 4:50.00 | 52968 | 74717 6 | 16:36.18 | 2:39.18 | 74718 | 86660 7 | 19:15.36 | 2:37.64 | 86661 | 98499 8 | 21:53.25 | 4:23.64 | 98500 | 118288 9 | 26:17.14 | 4:47.55 | 118289 | 139868 10 | 31:04.69 | 1:55.33 | 139869 | 148526 11 | 33:00.27 | 2:15.45 | 148527 | 158696 12 | 35:15.72 | 4:21.01 | 158697 | 178272 13 | 39:36.73 | 1:40.30 | 178273 | 185802 14 | 41:17.28 | 1:37.71 | 185803 | 193148 15 | 42:55.24 | 2:08.00 | 193149 | 202748 16 | 45:03.24 | 1:57.21 | 202749 | 211544 17 | 47:00.45 | 2:49.09 | 211545 | 224228 18 | 49:49.54 | 3:21.65 | 224229 | 239368 19 | 53:11.44 | 2:38.39 | 239369 | 251257 20 | 55:50.08 | 1:08.02 | 251258 | 256359

Трек 1

Имя файла H:\Торрентс.ру\Morricone - Gangster Collection 2CD\CD2\01 - Goodbye Palermo.wav

Длина предзазора 0:00:02.00

Пиковый уровень 72.0 % Качество трека 100.0 % CRC теста A38593C7 CRC копии A38593C7 Копирование... OK

Трек 2

Имя файла H:\Торрентс.ру\Morricone - Gangster Collection 2CD\CD2\02 - Corleone.wav

Длина предзазора 0:00:01.64

Пиковый уровень 71.7 % Качество трека 100.0 % CRC теста A355D7FB CRC копии A355D7FB Копирование... OK

Трек 3

Имя файла H:\Торрентс.ру\Morricone - Gangster Collection 2CD\CD2\03 - Conspiration.wav

Длина предзазора 0:00:02.84

Пиковый уровень 73.0 % Качество трека 100.0 % CRC теста 7A858F96 CRC копии 7A858F96 Копирование... OK

Трек 4

Имя файла H:\Торрентс.ру\Morricone - Gangster Collection 2CD\CD2\04 - Goodbye to Palermo.wav

Длина предзазора 0:00:02.57

Пиковый уровень 69.1 % Качество трека 100.0 % CRC теста C3456520 CRC копии C3456520 Копирование... OK

Трек 5

Имя файла H:\Торрентс.ру\Morricone - Gangster Collection 2CD\CD2\05 - The Penitent.wav

Длина предзазора 0:00:02.17

Пиковый уровень 77.4 % Качество трека 100.0 % CRC теста 8D68B108 CRC копии 8D68B108 Копирование... OK

Трек 6

Имя файла H:\Торрентс.ру\Morricone - Gangster Collection 2CD\CD2\06 - Message.wav

Длина предзазора 0:00:02.33

Пиковый уровень 84.2 % Качество трека 100.0 % CRC теста 654C5589 CRC копии 654C5589 Копирование... OK

Трек 7

Имя файла H:\Торрентс.ру\Morricone - Gangster Collection 2CD\CD2\07 - Far Memories of Sicily.wav

Длина предзазора 0:00:01.80

Пиковый уровень 76.3 % Качество трека 100.0 % CRC теста E6ACA7E3 CRC копии E6ACA7E3 Копирование... OK

Трек 8

Имя файла H:\Торрентс.ру\Morricone - Gangster Collection 2CD\CD2\08 - Final Event.wav

Длина предзазора 0:00:02.70

Пиковый уровень 75.6 % Качество трека 100.0 % CRC теста A66EAEC4 CRC копии A66EAEC4 Копирование... OK

Трек 9

Имя файла H:\Торрентс.ру\Morricone - Gangster Collection 2CD\CD2\09 - The Penitent (Alternate Version).wav

Длина предзазора 0:00:03.10

Пиковый уровень 73.4 % Качество трека 100.0 % CRC теста 49992E9E CRC копии 49992E9E Копирование... OK

Трек 10

Имя файла H:\Торрентс.ру\Morricone - Gangster Collection 2CD\CD2\10 - Degradation.wav

Длина предзазора 0:00:01.68

Пиковый уровень 79.1 % Качество трека 100.0 % CRC теста 58BD100C CRC копии 58BD100C Копирование... OK

Трек 11

Имя файла H:\Торрентс.ру\Morricone - Gangster Collection 2CD\CD2\11 - Insinuation.wav

Длина предзазора 0:00:02.01

Пиковый уровень 84.1 % Качество трека 100.0 % CRC теста 62CA970E CRC копии 62CA970E Копирование... OK

Трек 12

Имя файла H:\Торрентс.ру\Morricone - Gangster Collection 2CD\CD2\12 - To Come Back to Palermo.wav

Длина предзазора 0:00:02.22

Пиковый уровень 87.1 % Качество трека 99.9 % CRC теста F1515606 CRC копии F1515606 Копирование... OK

Трек 13

Имя файла H:\Торрентс.ру\Morricone - Gangster Collection 2CD\CD2\13 - Machine Gin McCain.wav

Длина предзазора 0:00:02.38

Пиковый уровень 79.7 % Качество трека 100.0 % CRC теста C2883BED CRC копии C2883BED Копирование... OK

Трек 14

Имя файла H:\Торрентс.ру\Morricone - Gangster Collection 2CD\CD2\14 - Machine Gin McCain #2.wav

Длина предзазора 0:00:02.49

Пиковый уровень 65.8 % Качество трека 99.8 % CRC теста 26B5C886 CRC копии 26B5C886 Копирование... OK

Трек 15

Имя файла H:\Торрентс.ру\Morricone - Gangster Collection 2CD\CD2\15 - Machine Gin McCain (Aternative Version).wav

Длина предзазора 0:00:03.13

Пиковый уровень 94.6 % Качество трека 100.0 % CRC теста 0932DED7 CRC копии 0932DED7 Копирование... OK

Трек 16

Имя файла H:\Торрентс.ру\Morricone - Gangster Collection 2CD\CD2\16 - The Ballad of Hank McCain.wav

Длина предзазора 0:00:02.89

Пиковый уровень 80.6 % Качество трека 100.0 % CRC теста 90D296F8 CRC копии 90D296F8 Копирование... OK

Трек 17

Имя файла H:\Торрентс.ру\Morricone - Gangster Collection 2CD\CD2\17 - Strangled Lives.wav

Длина предзазора 0:00:02.62

Пиковый уровень 79.3 % Качество трека 100.0 % CRC теста D0CF1C14 CRC копии D0CF1C14 Копирование... OK

Трек 18

Имя файла H:\Торрентс.ру\Morricone - Gangster Collection 2CD\CD2\18 - Colonial City.wav

Длина предзазора 0:00:01.26

Пиковый уровень 92.7 % Качество трека 100.0 % CRC теста 912082FE CRC копии 912082FE Копирование... OK

Трек 19

Имя файла H:\Торрентс.ру\Morricone - Gangster Collection 2CD\CD2\19 - HIdden Symptons.wav

Длина предзазора 0:00:03.29

Пиковый уровень 76.8 % Качество трека 100.0 % CRC теста 21A61EF5 CRC копии 21A61EF5 Копирование... OK

Трек 20

Имя файла H:\Торрентс.ру\Morricone - Gangster Collection 2CD\CD2\20 - The Other Octopus.wav

Длина предзазора 0:00:02.18

Пиковый уровень 25.7 % Качество трека 100.0 % CRC теста CDB4D0FF CRC копии CDB4D0FF Копирование... OK

Ошибок не произошло

Конец отчёта
 
REM GENRE SoundtrackREM DATE 1999REM DISCID EA0D1112REM COMMENT "ExactAudioCopy v0.99pb4"PERFORMER "Ennio Morricone"TITLE "The Gangster Collection"FILE "01 - The Ballad of Sacco and Vanzetti.wav" WAVE TRACK 01 AUDIO TITLE "The Ballad of Sacco and Vanzetti" PERFORMER "Ennio Morricone" FLAGS DCP INDEX 01 00:00:00 TRACK 02 AUDIO TITLE "Violent City" PERFORMER "Ennio Morricone" FLAGS DCP INDEX 00 03:23:14FILE "02 - Violent City.wav" WAVE INDEX 01 00:00:00 TRACK 03 AUDIO TITLE "Extreme Moment" PERFORMER "Ennio Morricone" FLAGS DCP INDEX 00 02:22:73FILE "03 - Extreme Moment.wav" WAVE INDEX 01 00:00:00 TRACK 04 AUDIO TITLE "The Sicilian Clan" PERFORMER "Ennio Morricone" FLAGS DCP INDEX 00 03:15:48FILE "04 - The Sicilian Clan.wav" WAVE INDEX 01 00:00:00 TRACK 05 AUDIO TITLE "Deborah's Theme" PERFORMER "Ennio Morricone" FLAGS DCP INDEX 00 03:35:48FILE "05 - Deborah's Theme.wav" WAVE INDEX 01 00:00:00 TRACK 06 AUDIO TITLE "Al Capone" PERFORMER "Ennio Morricone" FLAGS DCP INDEX 00 04:23:37FILE "06 - Al Capone.wav" WAVE INDEX 01 00:00:00 TRACK 07 AUDIO TITLE "The Untouchables - End Credits" PERFORMER "Ennio Morricone" FLAGS DCP INDEX 00 02:53:31FILE "07 - The Untouchables - End Credits.wav" WAVE INDEX 01 00:00:00 TRACK 08 AUDIO TITLE "Act of Faith" PERFORMER "Ennio Morricone" FLAGS DCP INDEX 00 03:09:26FILE "08 - Act of Faith.wav" WAVE INDEX 01 00:00:00 TRACK 09 AUDIO TITLE "Terrorists!" PERFORMER "Ennio Morricone" FLAGS DCP INDEX 00 03:09:34FILE "09 - Terrorists!.wav" WAVE INDEX 01 00:00:00 TRACK 10 AUDIO TITLE "The Iron Mayor" PERFORMER "Ennio Morricone" FLAGS DCP INDEX 00 11:29:16FILE "10 - The Iron Mayor.wav" WAVE INDEX 01 00:00:00 TRACK 11 AUDIO TITLE "A Net of Protections" PERFORMER "Ennio Morricone" FLAGS DCP INDEX 00 02:26:09FILE "11 - A Net of Protections.wav" WAVE INDEX 01 00:00:00 TRACK 12 AUDIO TITLE "The State's Repression" PERFORMER "Ennio Morricone" FLAGS DCP INDEX 00 02:05:53FILE "12 - The State's Repression.wav" WAVE INDEX 01 00:00:00 TRACK 13 AUDIO TITLE "Drought" PERFORMER "Ennio Morricone" FLAGS DCP INDEX 00 03:26:41FILE "13 - Drought.wav" WAVE INDEX 01 00:00:00 TRACK 14 AUDIO TITLE "Theme of Memories" PERFORMER "Ennio Morricone" FLAGS DCP INDEX 00 01:52:57FILE "14 - Theme of Memories.wav" WAVE INDEX 01 00:00:00 TRACK 15 AUDIO TITLE "Tacit Complicity" PERFORMER "Ennio Morricone" FLAGS DCP INDEX 00 01:28:34FILE "15 - Tacit Complicity.wav" WAVE INDEX 01 00:00:00 TRACK 16 AUDIO TITLE "Song of Sicily" PERFORMER "Ennio Morricone" FLAGS DCP INDEX 00 01:14:49FILE "16 - Song of Sicily.wav" WAVE INDEX 01 00:00:00 TRACK 17 AUDIO TITLE "The Mafia" PERFORMER "Ennio Morricone" FLAGS DCP INDEX 00 02:38:56FILE "17 - The Mafia.wav" WAVE INDEX 01 00:00:00 TRACK 18 AUDIO TITLE "Secret Reunion" PERFORMER "Ennio Morricone" FLAGS DCP INDEX 00 00:50:54FILE "18 - Secret Reunion.wav" WAVE INDEX 01 00:00:00
 
REM GENRE SoundtrackREM DATE 1999REM DISCID 450D5A14REM COMMENT "ExactAudioCopy v0.99pb4"PERFORMER "Ennio Morricone"TITLE "The Gangster Collection"FILE "01 - Goodbye Palermo.wav" WAVE TRACK 01 AUDIO TITLE "Goodbye Palermo" PERFORMER "Ennio Morricone" FLAGS DCP INDEX 01 00:00:00 TRACK 02 AUDIO TITLE "Corleone" PERFORMER "Ennio Morricone" FLAGS DCP INDEX 00 03:42:53FILE "02 - Corleone.wav" WAVE INDEX 01 00:00:00 TRACK 03 AUDIO TITLE "Conspiration" PERFORMER "Ennio Morricone" FLAGS DCP INDEX 00 04:07:60FILE "03 - Conspiration.wav" WAVE INDEX 01 00:00:00 TRACK 04 AUDIO TITLE "Goodbye to Palermo" PERFORMER "Ennio Morricone" FLAGS DCP INDEX 00 02:19:10FILE "04 - Goodbye to Palermo.wav" WAVE INDEX 01 00:00:00 TRACK 05 AUDIO TITLE "The Penitent" PERFORMER "Ennio Morricone" FLAGS DCP INDEX 00 01:27:28FILE "05 - The Penitent.wav" WAVE INDEX 01 00:00:00 TRACK 06 AUDIO TITLE "Message" PERFORMER "Ennio Morricone" FLAGS DCP INDEX 00 04:47:50FILE "06 - Message.wav" WAVE INDEX 01 00:00:00 TRACK 07 AUDIO TITLE "Far Memories of Sicily" PERFORMER "Ennio Morricone" FLAGS DCP INDEX 00 02:37:33FILE "07 - Far Memories of Sicily.wav" WAVE INDEX 01 00:00:00 TRACK 08 AUDIO TITLE "Final Event" PERFORMER "Ennio Morricone" FLAGS DCP INDEX 00 02:35:11FILE "08 - Final Event.wav" WAVE INDEX 01 00:00:00 TRACK 09 AUDIO TITLE "The Penitent (Alternate Version)" PERFORMER "Ennio Morricone" FLAGS DCP INDEX 00 04:20:56FILE "09 - The Penitent (Alternate Version).wav" WAVE INDEX 01 00:00:00 TRACK 10 AUDIO TITLE "Degradation" PERFORMER "Ennio Morricone" FLAGS DCP INDEX 00 04:46:04FILE "10 - Degradation.wav" WAVE INDEX 01 00:00:00 TRACK 11 AUDIO TITLE "Insinuation" PERFORMER "Ennio Morricone" FLAGS DCP INDEX 00 01:53:32FILE "11 - Insinuation.wav" WAVE INDEX 01 00:00:00 TRACK 12 AUDIO TITLE "To Come Back to Palermo" PERFORMER "Ennio Morricone" FLAGS DCP INDEX 00 02:13:28FILE "12 - To Come Back to Palermo.wav" WAVE INDEX 01 00:00:00 TRACK 13 AUDIO TITLE "Machine Gin McCain" PERFORMER "Ennio Morricone" FLAGS DCP INDEX 00 04:18:47FILE "13 - Machine Gin McCain.wav" WAVE INDEX 01 00:00:00 TRACK 14 AUDIO TITLE "Machine Gin McCain #2" PERFORMER "Ennio Morricone" FLAGS DCP INDEX 00 01:37:68FILE "14 - Machine Gin McCain #2.wav" WAVE INDEX 01 00:00:00 TRACK 15 AUDIO TITLE "Machine Gin McCain (Aternative Version)" PERFORMER "Ennio Morricone" FLAGS DCP INDEX 00 01:34:61FILE "15 - Machine Gin McCain (Aternative Version).wav" WAVE INDEX 01 00:00:00 TRACK 16 AUDIO TITLE "The Ballad of Hank McCain" PERFORMER "Ennio Morricone" FLAGS DCP INDEX 00 02:05:08FILE "16 - The Ballad of Hank McCain.wav" WAVE INDEX 01 00:00:00 TRACK 17 AUDIO TITLE "Strangled Lives" PERFORMER "Ennio Morricone" FLAGS DCP INDEX 00 01:54:49FILE "17 - Strangled Lives.wav" WAVE INDEX 01 00:00:00 TRACK 18 AUDIO TITLE "Colonial City" PERFORMER "Ennio Morricone" FLAGS DCP INDEX 00 02:47:64FILE "18 - Colonial City.wav" WAVE INDEX 01 00:00:00 TRACK 19 AUDIO TITLE "HIdden Symptons" PERFORMER "Ennio Morricone" FLAGS DCP INDEX 00 03:18:43FILE "19 - HIdden Symptons.wav" WAVE INDEX 01 00:00:00 TRACK 20 AUDIO TITLE "The Other Octopus" PERFORMER "Ennio Morricone" FLAGS DCP INDEX 00 02:36:25FILE "20 - The Other Octopus.wav" WAVE INDEX 01 00:00:00
Доп. информация: Двойной сборник, включающий музыку Морриконе, написанную для фильмов криминального жанра: "Город Насилия" (1970), "Пулемёт Маккейна" (1969), "Железный мэр" (1977), "Неприкасаемые" (1987), "Забыть Палермо" (1990) и др.


Трекер:  [ 07-Июл-2011 22:24 ]

  

Скачать .torrent

Размер .torrent файла 16 KB


Размер: 624 MB
Хэш (hash) релиза: 4e6407ecd4be7b98ff00aed6cc15584bf8adbafa

Еще никто не оставлял запись к записи скачать торрент Ennio Morricone: The Gangster Collection - 2CD - 1999, FLAC . Будь первым!

!Обратная связь