Скачать через торрент музыку John Murphy - Sunshine - 2007, FLAC бесплатно без регистрации torrent

Если у вас наблюдаются проблемы со скриншотами, переходом по ссылками, скачиванием торрентов - проблемы в блокировщике рекламы AdBlock. #хорошегоДня!


Статистика раздачи
Размер:  171 MB   |    Зарегистрирован:  6 лет 2 месяца   |    .torrent скачан:  73 раза   |   
Раздают:  1  
   
Загрузка...
 
Автор Сообщение

Galfimbul

avatar Galfimbul


John Murphy - Sunshine

Жанр: Score
Год выпуска диска: 2007
Аудио кодек: FLAC
Тип рипа: tracks+.cue
Битрейт аудио: lossless
Трэклист:
01. Capa's Jump
02. Sunshine
03. Mercury
04. Major Theme
05. Kaneda's Death pt.2
06. Mace Dies
07. Capa Suits Up
08. Searle's Last Blast
09. Elegy
10. Cassie Searches - Dead Corazon
11. Kaneda's Death pt.1
12. Freezing Outside
13. Pinbacker Slashes Capa
14. Freezing Inside
15. Corazon Finds The Seedling
16. Floating Free
17. Scooter - Nightmare
18. Escaping the Icarus 2
Доп. информация:
Exact Audio Copy V0.99 prebeta 4 from 23. January 2008

EAC extraction logfile from 28. May 2008, 17:54

John Murphy / Sunshine

Used drive : _NEC DVD_RW ND-4551A Adapter: 3 ID: 0

Read mode : Secure
Utilize accurate stream : Yes
Defeat audio cache : Yes
Make use of C2 pointers : No

Read offset correction : 48
Overread into Lead-In and Lead-Out : No
Fill up missing offset samples with silence : Yes
Delete leading and trailing silent blocks : No
Null samples used in CRC calculations : Yes
Used interface : Native Win32 interface for Win NT & 2000
Gap handling : Appended to previous track

Used output format : User Defined Encoder
Selected bitrate : 128 kBit/s
Quality : High
Add ID3 tag : No
Command line compressor : C:\Program Files\FLAC\flac.exe
Additional command line options : -V -8 -T "artist=%a" -T "title=%t" -T "album=%g" -T "date=%y" -T "tracknumber=%n" -T "genre=%m" %s

TOC of the extracted CD

Track | Start | Length | Start sector | End sector
---------------------------------------------------------
1 | 0:00.00 | 1:22.28 | 0 | 6177
2 | 1:22.28 | 4:27.34 | 6178 | 26236
3 | 5:49.62 | 2:10.08 | 26237 | 35994
4 | 7:59.70 | 1:17.60 | 35995 | 41829
5 | 9:17.55 | 2:49.56 | 41830 | 54560
6 | 12:07.36 | 1:55.01 | 54561 | 63186
7 | 14:02.37 | 1:54.05 | 63187 | 71741
8 | 15:56.42 | 0:52.14 | 71742 | 75655
9 | 16:48.56 | 1:43.23 | 75656 | 83403
10 | 18:32.04 | 2:41.05 | 83404 | 95483
11 | 21:13.09 | 3:13.34 | 95484 | 109992
12 | 24:26.43 | 2:54.21 | 109993 | 123063
13 | 27:20.64 | 1:44.09 | 123064 | 130872
14 | 29:04.73 | 1:50.41 | 130873 | 139163
15 | 30:55.39 | 1:20.32 | 139164 | 145195
16 | 32:15.71 | 1:20.73 | 145196 | 151268
17 | 33:36.69 | 1:10.33 | 151269 | 156551
18 | 34:47.27 | 3:09.66 | 156552 | 170792

Track 1

Filename E:\John Murphy\Sunshine\01 - Capa's Jump.wav

Pre-gap length 0:00:02.00

Peak level 98.9 %
Track quality 99.8 %
Test CRC D9EF08BB
Copy CRC D9EF08BB
Track not present in AccurateRip database
Copy OK

Track 2

Filename E:\John Murphy\Sunshine\02 - Sunshine.wav

Peak level 98.9 %
Track quality 100.0 %
Test CRC 78F80FEE
Copy CRC 78F80FEE
Track not present in AccurateRip database
Copy OK

Track 3

Filename E:\John Murphy\Sunshine\03 - Mercury.wav

Peak level 98.6 %
Track quality 100.0 %
Test CRC 53FF8A43
Copy CRC 53FF8A43
Track not present in AccurateRip database
Copy OK

Track 4

Filename E:\John Murphy\Sunshine\04 - Major Theme.wav

Peak level 98.9 %
Track quality 100.0 %
Test CRC 61E0AEBB
Copy CRC 61E0AEBB
Track not present in AccurateRip database
Copy OK

Track 5

Filename E:\John Murphy\Sunshine\05 - Kaneda's Death pt.2.wav

Peak level 100.0 %
Track quality 100.0 %
Test CRC 7E7E262B
Copy CRC 7E7E262B
Track not present in AccurateRip database
Copy OK

Track 6

Filename E:\John Murphy\Sunshine\06 - Mace Dies.wav

Peak level 100.0 %
Track quality 100.0 %
Test CRC 5372AC78
Copy CRC 5372AC78
Track not present in AccurateRip database
Copy OK

Track 7

Filename E:\John Murphy\Sunshine\07 - Capa Suits Up.wav

Peak level 98.9 %
Track quality 100.0 %
Test CRC 85ED8445
Copy CRC 85ED8445
Track not present in AccurateRip database
Copy OK

Track 8

Filename E:\John Murphy\Sunshine\08 - Searle's Last Blast.wav

Peak level 99.1 %
Track quality 100.0 %
Test CRC 6B2B1A6B
Copy CRC 6B2B1A6B
Track not present in AccurateRip database
Copy OK

Track 9

Filename E:\John Murphy\Sunshine\09 - Elegy.wav

Peak level 98.5 %
Track quality 100.0 %
Test CRC 913A9010
Copy CRC 913A9010
Track not present in AccurateRip database
Copy OK

Track 10

Filename E:\John Murphy\Sunshine\10 - Cassie Searches - Dead Corazon.wav

Peak level 100.0 %
Track quality 100.0 %
Test CRC 0ED2F318
Copy CRC 0ED2F318
Track not present in AccurateRip database
Copy OK

Track 11

Filename E:\John Murphy\Sunshine\11 - Kaneda's Death pt.1.wav

Peak level 100.0 %
Track quality 100.0 %
Test CRC 7031C1D4
Copy CRC 7031C1D4
Track not present in AccurateRip database
Copy OK

Track 12

Filename E:\John Murphy\Sunshine\12 - Freezing Outside.wav

Peak level 96.8 %
Track quality 100.0 %
Test CRC B285BA19
Copy CRC B285BA19
Track not present in AccurateRip database
Copy OK

Track 13

Filename E:\John Murphy\Sunshine\13 - Pinbacker Slashes Capa.wav

Peak level 98.9 %
Track quality 100.0 %
Test CRC 9703C0FE
Copy CRC 9703C0FE
Track not present in AccurateRip database
Copy OK

Track 14

Filename E:\John Murphy\Sunshine\14 - Freezing Inside.wav

Peak level 98.9 %
Track quality 100.0 %
Test CRC F45ACE8C
Copy CRC F45ACE8C
Track not present in AccurateRip database
Copy OK

Track 15

Filename E:\John Murphy\Sunshine\15 - Corazon Finds The Seedling.wav

Peak level 98.6 %
Track quality 100.0 %
Test CRC C4AFDC90
Copy CRC C4AFDC90
Track not present in AccurateRip database
Copy OK

Track 16

Filename E:\John Murphy\Sunshine\16 - Floating Free.wav

Peak level 99.1 %
Track quality 100.0 %
Test CRC 87F1D517
Copy CRC 87F1D517
Track not present in AccurateRip database
Copy OK

Track 17

Filename E:\John Murphy\Sunshine\17 - Scooter - Nightmare.wav

Peak level 98.6 %
Track quality 100.0 %
Test CRC C7B4376D
Copy CRC C7B4376D
Track not present in AccurateRip database
Copy OK

Track 18

Filename E:\John Murphy\Sunshine\18 - Escaping the Icarus 2.wav

Peak level 99.3 %
Track quality 100.0 %
Test CRC EBF838CF
Copy CRC EBF838CF
Track not present in AccurateRip database
Copy OK

None of the tracks are present in the AccurateRip database

No errors occurred

End of status report
Завораживающая музыка к потрясающему философскому фильму умопомрачительной глубины.
what.cd


Трекер:  [ 07-Июл-2011 22:24 ]

  

Скачать .torrent

Размер .torrent файла 15 KB


Размер: 171 MB
Хэш (hash) релиза: a96e62577f6a468b6adc9a1c1400d74aa8c78167

Еще никто не оставлял запись к записи скачать торрент John Murphy - Sunshine - 2007, FLAC . Будь первым!

!Обратная связь