Скачать через торрент музыку A Beautiful Mind Игры разума by James Horner - 2001, FLAC бесплатно без регистрации torrent

Если у вас наблюдаются проблемы со скриншотами, переходом по ссылками, скачиванием торрентов - проблемы в блокировщике рекламы AdBlock. #хорошегоДня!


Статистика раздачи
Размер:  290 MB   |    Зарегистрирован:  6 лет 5 месяцев   |    .torrent скачан:  103 раза   |   
Раздают:  1  
   
Загрузка...
 
Автор Сообщение

Galfimbul

avatar Galfimbul


A Beautiful Mind / Игры разума by James Horner



Жанр: Soundtrack / Instrumental
Год выпуска диска: 2001
Производитель диска: USA
Аудио кодек: FLAC
Тип рипа: tracks+.cue
Битрейт аудио: lossless
Продолжительность: 71:34 min
Трэклист:
01. A Kaleidoscope Of Mathematics [4:56]
02. Playing A Game Of 'Go' [3:35]
03. Looking For The Next Great Idea [3:03]
04. Creating 'Governing Dynamics' [2:33]
05. Cracking The Russian Codes [3:22]
06. Nash Descends Into Parcher's World [4:39]
07. First Drop-Off, First Kiss [5:16]
08. The Car Chase [2:25]
09. Alicia Discovers Nash's Dark World [8:29]
10. Real Or Imagined? [5:47]
11. Of One Heart, Of One Mind [6:21]
12. Saying Goodbye To Those You Love [6:44]
13. Teaching Mathematics Again [3:16]
14. The Prize Of One's Life... The Prize Of One's Mind [3:03]
15. All Love Can Be [3:18]
16. Closing Credits [4:49]
Доп. информация:
Exact Audio Copy V0.99 prebeta 4 from 23. January 2008

EAC extraction logfile from 22. July 2008, 23:28

James Horner / A Beautiful Mind

Used drive : TSSTcorpDVD-ROM TS-H352C Adapter: 1 ID: 1

Read mode : Secure
Utilize accurate stream : Yes
Defeat audio cache : Yes
Make use of C2 pointers : No

Read offset correction : 6
Overread into Lead-In and Lead-Out : No
Fill up missing offset samples with silence : Yes
Delete leading and trailing silent blocks : No
Null samples used in CRC calculations : Yes
Used interface : Installed external ASPI interface
Gap handling : Appended to previous track

Used output format : User Defined Encoder
Selected bitrate : 192 kBit/s
Quality : High
Add ID3 tag : No
Command line compressor : C:\Program Files\FLAC\flac.exe
Additional command line options : -8 -A tukey(0.25) -A gauss(0.1875) -b 4096 -V -T "artist=%a" -T "title=%t" -T "album=%g" -T "date=%y" -T "tracknumber=%n" -T "genre=%m" %s --sector-align

TOC of the extracted CD

Track | Start | Length | Start sector | End sector
---------------------------------------------------------
1 | 0:00.00 | 4:55.53 | 0 | 22177
2 | 4:55.53 | 3:34.67 | 22178 | 38294
3 | 8:30.45 | 3:02.55 | 38295 | 51999
4 | 11:33.25 | 2:33.07 | 52000 | 63481
5 | 14:06.32 | 3:22.03 | 63482 | 78634
6 | 17:28.35 | 4:39.04 | 78635 | 99563
7 | 22:07.39 | 5:15.43 | 99564 | 123231
8 | 27:23.07 | 2:24.48 | 123232 | 134079
9 | 29:47.55 | 8:29.14 | 134080 | 172268
10 | 38:16.69 | 5:47.27 | 172269 | 198320
11 | 44:04.21 | 6:21.28 | 198321 | 226923
12 | 50:25.49 | 6:43.39 | 226924 | 257187
13 | 57:09.13 | 3:16.20 | 257188 | 271907
14 | 60:25.33 | 3:02.61 | 271908 | 285618
15 | 63:28.19 | 3:17.64 | 285619 | 300457
16 | 66:46.08 | 4:48.53 | 300458 | 322110
17 | 74:06.61 | 5:48.12 | 333511 | 359622

Track 1

Filename N:\Music\A Beautiful Mind\01 - A Kaleidoscope Of Mathematics.wav

Pre-gap length 0:00:02.00

Peak level 98.7 %
Track quality 100.0 %
Test CRC C956636A
Copy CRC C956636A
Copy OK

Track 2

Filename N:\Music\A Beautiful Mind\02 - Playing A Game Of 'Go'.wav

Peak level 47.2 %
Track quality 100.0 %
Test CRC DED18BD7
Copy CRC DED18BD7
Copy OK

Track 3

Filename N:\Music\A Beautiful Mind\03 - Looking For The Next Great Idea.wav

Peak level 98.7 %
Track quality 100.0 %
Test CRC F8BD49FE
Copy CRC F8BD49FE
Copy OK

Track 4

Filename N:\Music\A Beautiful Mind\04 - Creating 'Governing Dynamics'.wav

Peak level 98.7 %
Track quality 99.9 %
Test CRC EDC3C7A4
Copy CRC EDC3C7A4
Copy OK

Track 5

Filename N:\Music\A Beautiful Mind\05 - Cracking The Russian Codes.wav

Peak level 90.0 %
Track quality 100.0 %
Test CRC 181CC24C
Copy CRC 181CC24C
Copy OK

Track 6

Filename N:\Music\A Beautiful Mind\06 - Nash Descends Into Parcher's World.wav

Peak level 37.9 %
Track quality 100.0 %
Test CRC 00A25F7E
Copy CRC 00A25F7E
Copy OK

Track 7

Filename N:\Music\A Beautiful Mind\07 - First Drop-Off, First Kiss.wav

Peak level 70.1 %
Track quality 100.0 %
Test CRC 8E619ACA
Copy CRC 8E619ACA
Copy OK

Track 8

Filename N:\Music\A Beautiful Mind\08 - The Car Chase.wav

Peak level 88.2 %
Track quality 100.0 %
Test CRC C3DB62EE
Copy CRC C3DB62EE
Copy OK

Track 9

Filename N:\Music\A Beautiful Mind\09 - Alicia Discovers Nash's Dark World.wav

Peak level 98.7 %
Track quality 100.0 %
Test CRC 1E88CE9F
Copy CRC 1E88CE9F
Copy OK

Track 10

Filename N:\Music\A Beautiful Mind\10 - Real Or Imagined .wav

Peak level 98.7 %
Track quality 99.9 %
Test CRC 7D593C84
Copy CRC 7D593C84
Copy OK

Track 11

Filename N:\Music\A Beautiful Mind\11 - Of One Heart, Of One Mind.wav

Peak level 57.0 %
Track quality 100.0 %
Test CRC 5226BBD5
Copy CRC 5226BBD5
Copy OK

Track 12

Filename N:\Music\A Beautiful Mind\12 - Saying Goodbye To Those You Love.wav

Peak level 54.3 %
Track quality 100.0 %
Test CRC F1783B0F
Copy CRC F1783B0F
Copy OK

Track 13

Filename N:\Music\A Beautiful Mind\13 - Teaching Mathematics Again.wav

Peak level 46.2 %
Track quality 100.0 %
Test CRC CF3CECD5
Copy CRC CF3CECD5
Copy OK

Track 14

Filename N:\Music\A Beautiful Mind\14 - The Prize Of One's Life... The Prize Of One's Mind.wav

Peak level 61.1 %
Track quality 100.0 %
Test CRC 4638558F
Copy CRC 4638558F
Copy OK

Track 15

Filename N:\Music\A Beautiful Mind\15 - All Love Can Be.wav

Peak level 79.1 %
Track quality 100.0 %
Test CRC 9078DDAA
Copy CRC 9078DDAA
Copy OK

Track 16

Filename N:\Music\A Beautiful Mind\16 - Closing Credits.wav

Peak level 77.4 %
Track quality 100.0 %
Test CRC 8FD51456
Copy CRC 8FD51456
Copy OK

No errors occurred

End of status report


Трекер:  [ 07-Июл-2011 22:25 ]

  

Скачать .torrent

Размер .torrent файла 3 KB


Размер: 290 MB
Хэш (hash) релиза: 4bbe84f61f312c89bb25a4a240571fb3921dfcdc

Еще никто не оставлял запись к записи скачать торрент A Beautiful Mind Игры разума by James Horner - 2001, FLAC . Будь первым!

!Обратная связь