Скачать через торрент музыку На игле Trainspotting # 1 & 2 бесплатно без регистрации torrent

Если у вас наблюдаются проблемы со скриншотами, переходом по ссылками, скачиванием торрентов - проблемы в блокировщике рекламы AdBlock. #хорошегоДня!


Статистика раздачи
Размер:  886 MB   |    Зарегистрирован:  6 лет 2 месяца   |    .torrent скачан:  96 раз   |   
Раздают:  1  
   
Загрузка...
 
Автор Сообщение

Galfimbul

avatar Galfimbul



Жанр: Soundtrack | Годы выпуска дисков: 1996, 1997 | Производитель дисков: Capitol
Аудио кодек: FLAC | Тип рипа: tracks+.cue | Битрейт аудио: lossless
Продолжительность указана отдельно для каждого диска
Источник: WhatCD




Трэклист, лог извлечения и индексная карта:
Продолжительность: 01:15:36

01. Iggy Pop - Lust For Life [05:13]
02. Brian Eno - Deep Blue Day [03:56]
03. Primal Scream - Trainspotting [10:34]
04. Sleeper - Atomic [05:09]
05. New Order - Temptation [07:00]
06. Iggy Pop - Nightclubbing [04:13]
07. Blur - Sing [06:00]
08. Lou Reed - Perfect Day [03:44]
09. Pulp - Mile End [04:31]
10. Bedrock & Kyo - For What You Dream Of [06:27]
11. Elastica - 2:1 [02:33]
12. Leftfield - A Final Hit [03:15]
13. Underworld - Born Slippy [09:44]
14. Damon Albarn - Closet Romantic [03:09]
 
Exact Audio Copy V0.99 prebeta 4 from 23. January 2008

EAC extraction logfile from 5. May 2009, 19:06

Various / Trainspotting

Used drive : PIONEER DVD-RW DVR-111D Adapter: 3 ID: 0

Read mode : SecureUtilize accurate stream : YesDefeat audio cache : YesMake use of C2 pointers : No

Read offset correction : 48Overread into Lead-In and Lead-Out : NoFill up missing offset samples with silence : YesDelete leading and trailing silent blocks : NoNull samples used in CRC calculations : YesUsed interface : Native Win32 interface for Win NT & 2000Gap handling : Appended to previous track

Used output format : User Defined EncoderSelected bitrate : 768 kBit/sQuality : HighAdd ID3 tag : NoCommand line compressor : C:\Program Files\Exact Audio Copy\FLAC\FLAC.EXEAdditional command line options : -V -8 -T "artist=%a" -T "title=%t" -T "album=%g" -T "date=%y" -T "tracknumber=%n" -T "genre=%m" %s

TOC of the extracted CD

Track | Start | Length | Start sector | End sector --------------------------------------------------------- 1 | 0:00.32 | 5:13.20 | 32 | 23526 2 | 5:13.52 | 3:56.38 | 23527 | 41264 3 | 9:10.15 | 10:34.57 | 41265 | 88871 4 | 19:44.72 | 5:09.33 | 88872 | 112079 5 | 24:54.30 | 7:00.15 | 112080 | 143594 6 | 31:54.45 | 4:13.50 | 143595 | 162619 7 | 36:08.20 | 6:00.72 | 162620 | 189691 8 | 42:09.17 | 3:44.58 | 189692 | 206549 9 | 45:54.00 | 4:31.55 | 206550 | 226929 10 | 50:25.55 | 6:27.67 | 226930 | 256021 11 | 56:53.47 | 2:33.40 | 256022 | 267536 12 | 59:27.12 | 3:15.60 | 267537 | 282221 13 | 62:42.72 | 9:44.45 | 282222 | 326066 14 | 72:27.42 | 3:09.00 | 326067 | 340241

Track 1

Filename C:\Documents and Settings\c0utta\Desktop\1996 - Trainspotting\01 - (Iggy Pop) - Lust For Life.wav

Pre-gap length 0:00:02.42

Peak level 87.2 % Track quality 100.0 % Test CRC 8C9A34F6 Copy CRC 8C9A34F6 Accurately ripped (confidence 136) [6140A86B] Copy OK

Track 2

Filename C:\Documents and Settings\c0utta\Desktop\1996 - Trainspotting\02 - (Brian Eno) - Deep Blue Day.wav

Pre-gap length 0:00:01.36

Peak level 81.5 % Track quality 100.0 % Test CRC ED800C45 Copy CRC ED800C45 Accurately ripped (confidence 138) [BCF85522] Copy OK

Track 3

Filename C:\Documents and Settings\c0utta\Desktop\1996 - Trainspotting\03 - (Primal Scream) - Trainspotting.wav

Pre-gap length 0:00:00.04

Peak level 90.9 % Track quality 100.0 % Test CRC 6820C73C Copy CRC 6820C73C Accurately ripped (confidence 138) [2B201BBC] Copy OK

Track 4

Filename C:\Documents and Settings\c0utta\Desktop\1996 - Trainspotting\04 - (Sleeper) - Atomic.wav

Pre-gap length 0:00:01.69

Peak level 92.5 % Track quality 100.0 % Test CRC AAD2CCC2 Copy CRC AAD2CCC2 Accurately ripped (confidence 139) [CBFF7E98] Copy OK

Track 5

Filename C:\Documents and Settings\c0utta\Desktop\1996 - Trainspotting\05 - (New Order) - Temptation.wav

Pre-gap length 0:00:00.84

Peak level 88.3 % Track quality 100.0 % Test CRC 6AACF1E7 Copy CRC 6AACF1E7 Accurately ripped (confidence 138) [52D280CE] Copy OK

Track 6

Filename C:\Documents and Settings\c0utta\Desktop\1996 - Trainspotting\06 - (Iggy Pop) - Nightclubbing.wav

Pre-gap length 0:00:00.93

Peak level 90.0 % Track quality 99.9 % Test CRC EA458AF3 Copy CRC EA458AF3 Accurately ripped (confidence 139) [E6B99787] Copy OK

Track 7

Filename C:\Documents and Settings\c0utta\Desktop\1996 - Trainspotting\07 - (Blur) - Sing.wav

Pre-gap length 0:00:01.20

Peak level 92.5 % Track quality 99.9 % Test CRC C63F6C9A Copy CRC C63F6C9A Accurately ripped (confidence 139) [980589B4] Copy OK

Track 8

Filename C:\Documents and Settings\c0utta\Desktop\1996 - Trainspotting\08 - (Lou Reed) - Perfect Day.wav

Pre-gap length 0:00:00.66

Peak level 92.5 % Track quality 99.9 % Test CRC 57ABCBA6 Copy CRC 57ABCBA6 Accurately ripped (confidence 140) [30043C3E] Copy OK

Track 9

Filename C:\Documents and Settings\c0utta\Desktop\1996 - Trainspotting\09 - (Pulp) - Mile End.wav

Pre-gap length 0:00:00.73

Peak level 92.4 % Track quality 100.0 % Test CRC 643959A2 Copy CRC 643959A2 Accurately ripped (confidence 140) [5DA6A938] Copy OK

Track 10

Filename C:\Documents and Settings\c0utta\Desktop\1996 - Trainspotting\10 - (Bedrock featuring KYO) - For What You Dream Of.wav

Pre-gap length 0:00:01.33

Peak level 98.0 % Track quality 100.0 % Test CRC 1178FFE9 Copy CRC 1178FFE9 Accurately ripped (confidence 132) [03AFEA30] Copy OK

Track 11

Filename C:\Documents and Settings\c0utta\Desktop\1996 - Trainspotting\11 - (Elastica) - 2-1.wav

Pre-gap length 0:00:01.16

Peak level 83.2 % Track quality 100.0 % Test CRC FDF18A69 Copy CRC FDF18A69 Accurately ripped (confidence 139) [D917E4D2] Copy OK

Track 12

Filename C:\Documents and Settings\c0utta\Desktop\1996 - Trainspotting\12 - (Leftfield) - A Final Hit.wav

Pre-gap length 0:00:01.09

Peak level 69.6 % Track quality 100.0 % Test CRC 9074B11B Copy CRC 9074B11B Accurately ripped (confidence 138) [3E95E1AB] Copy OK

Track 13

Filename C:\Documents and Settings\c0utta\Desktop\1996 - Trainspotting\13 - (Underworld) - Born Slippy.wav

Pre-gap length 0:00:00.53

Peak level 77.6 % Track quality 100.0 % Test CRC FA2DE753 Copy CRC FA2DE753 Accurately ripped (confidence 131) [D511BFAC] Copy OK

Track 14

Filename C:\Documents and Settings\c0utta\Desktop\1996 - Trainspotting\14 - (Damon Albarn) - Closet Romantic.wav

Pre-gap length 0:00:01.16

Peak level 94.4 % Track quality 100.0 % Test CRC 2714F58B Copy CRC 2714F58B Accurately ripped (confidence 98) [E0B68CB7] Copy OK

All tracks accurately ripped

No errors occurred

End of status report
 
REM GENRE SoundtrackREM DATE 1996REM DISCID CD11B80EREM COMMENT "ExactAudioCopy v0.99pb4"PERFORMER "Various"TITLE "Trainspotting"FILE "1996 - Trainspotting\01 - (Iggy Pop) - Lust For Life.wav" WAVE TRACK 01 AUDIO TITLE "Lust For Life" PERFORMER "Iggy Pop" PREGAP 00:00:32 INDEX 01 00:00:00 TRACK 02 AUDIO TITLE "Deep Blue Day" PERFORMER "Brian Eno" INDEX 00 05:11:68FILE "1996 - Trainspotting\02 - (Brian Eno) - Deep Blue Day.wav" WAVE INDEX 01 00:00:00 TRACK 03 AUDIO TITLE "Trainspotting" PERFORMER "Primal Scream" INDEX 00 03:56:35FILE "1996 - Trainspotting\03 - (Primal Scream) - Trainspotting.wav" WAVE INDEX 01 00:00:00 TRACK 04 AUDIO TITLE "Atomic" PERFORMER "Sleeper" INDEX 00 10:33:05FILE "1996 - Trainspotting\04 - (Sleeper) - Atomic.wav" WAVE INDEX 01 00:00:00 TRACK 05 AUDIO TITLE "Temptation" PERFORMER "New Order" INDEX 00 05:08:45FILE "1996 - Trainspotting\05 - (New Order) - Temptation.wav" WAVE INDEX 01 00:00:00 TRACK 06 AUDIO TITLE "Nightclubbing" PERFORMER "Iggy Pop" INDEX 00 06:59:20FILE "1996 - Trainspotting\06 - (Iggy Pop) - Nightclubbing.wav" WAVE INDEX 01 00:00:00 TRACK 07 AUDIO TITLE "Sing" PERFORMER "Blur" INDEX 00 04:12:35FILE "1996 - Trainspotting\07 - (Blur) - Sing.wav" WAVE INDEX 01 00:00:00 TRACK 08 AUDIO TITLE "Perfect Day" PERFORMER "Lou Reed" INDEX 00 06:00:22FILE "1996 - Trainspotting\08 - (Lou Reed) - Perfect Day.wav" WAVE INDEX 01 00:00:00 TRACK 09 AUDIO TITLE "Mile End" PERFORMER "Pulp" INDEX 00 03:44:03FILE "1996 - Trainspotting\09 - (Pulp) - Mile End.wav" WAVE INDEX 01 00:00:00 TRACK 10 AUDIO TITLE "For What You Dream Of" PERFORMER "Bedrock featuring KYO" INDEX 00 04:30:30FILE "1996 - Trainspotting\10 - (Bedrock featuring KYO) - For What You Dream Of.wav" WAVE INDEX 01 00:00:00 TRACK 11 AUDIO TITLE "2:1" PERFORMER "Elastica" INDEX 00 06:26:55FILE "1996 - Trainspotting\11 - (Elastica) - 2-1.wav" WAVE INDEX 01 00:00:00 TRACK 12 AUDIO TITLE "A Final Hit" PERFORMER "Leftfield" INDEX 00 02:32:33FILE "1996 - Trainspotting\12 - (Leftfield) - A Final Hit.wav" WAVE INDEX 01 00:00:00 TRACK 13 AUDIO TITLE "Born Slippy" PERFORMER "Underworld" INDEX 00 03:15:20FILE "1996 - Trainspotting\13 - (Underworld) - Born Slippy.wav" WAVE INDEX 01 00:00:00 TRACK 14 AUDIO TITLE "Closet Romantic" PERFORMER "Damon Albarn" INDEX 00 09:43:33FILE "1996 - Trainspotting\14 - (Damon Albarn) - Closet Romantic.wav" WAVE INDEX 01 00:00:00
 
REM GENRE SoundtrackREM DATE 1996REM DISCID CD11B80EREM COMMENT "ExactAudioCopy v0.99pb4"PERFORMER "Various"TITLE "Trainspotting"FILE "01 - (Iggy Pop) - Lust For Life.wav" WAVE TRACK 01 AUDIO TITLE "Lust For Life" PERFORMER "Iggy Pop" PREGAP 00:00:32 INDEX 01 00:00:00 TRACK 02 AUDIO TITLE "Deep Blue Day" PERFORMER "Brian Eno" INDEX 00 05:11:68FILE "02 - (Brian Eno) - Deep Blue Day.wav" WAVE INDEX 01 00:00:00 TRACK 03 AUDIO TITLE "Trainspotting" PERFORMER "Primal Scream" INDEX 00 03:56:35FILE "03 - (Primal Scream) - Trainspotting.wav" WAVE INDEX 01 00:00:00 TRACK 04 AUDIO TITLE "Atomic" PERFORMER "Sleeper" INDEX 00 10:33:05FILE "04 - (Sleeper) - Atomic.wav" WAVE INDEX 01 00:00:00 TRACK 05 AUDIO TITLE "Temptation" PERFORMER "New Order" INDEX 00 05:08:45FILE "05 - (New Order) - Temptation.wav" WAVE INDEX 01 00:00:00 TRACK 06 AUDIO TITLE "Nightclubbing" PERFORMER "Iggy Pop" INDEX 00 06:59:20FILE "06 - (Iggy Pop) - Nightclubbing.wav" WAVE INDEX 01 00:00:00 TRACK 07 AUDIO TITLE "Sing" PERFORMER "Blur" INDEX 00 04:12:35FILE "07 - (Blur) - Sing.wav" WAVE INDEX 01 00:00:00 TRACK 08 AUDIO TITLE "Perfect Day" PERFORMER "Lou Reed" INDEX 00 06:00:22FILE "08 - (Lou Reed) - Perfect Day.wav" WAVE INDEX 01 00:00:00 TRACK 09 AUDIO TITLE "Mile End" PERFORMER "Pulp" INDEX 00 03:44:03FILE "09 - (Pulp) - Mile End.wav" WAVE INDEX 01 00:00:00 TRACK 10 AUDIO TITLE "For What You Dream Of" PERFORMER "Bedrock featuring KYO" INDEX 00 04:30:30FILE "10 - (Bedrock featuring KYO) - For What You Dream Of.wav" WAVE INDEX 01 00:00:00 TRACK 11 AUDIO TITLE "2:1" PERFORMER "Elastica" INDEX 00 06:26:55FILE "11 - (Elastica) - 2-1.wav" WAVE INDEX 01 00:00:00 TRACK 12 AUDIO TITLE "A Final Hit" PERFORMER "Leftfield" INDEX 00 02:32:33FILE "12 - (Leftfield) - A Final Hit.wav" WAVE INDEX 01 00:00:00 TRACK 13 AUDIO TITLE "Born Slippy" PERFORMER "Underworld" INDEX 00 03:15:20FILE "13 - (Underworld) - Born Slippy.wav" WAVE INDEX 01 00:00:00 TRACK 14 AUDIO TITLE "Closet Romantic" PERFORMER "Damon Albarn" INDEX 00 09:43:33FILE "14 - (Damon Albarn) - Closet Romantic.wav" WAVE INDEX 01 00:00:00
Продолжительность: 01:11:47

01. PF Project - Choose Life (featuring Ewan McGregor) [07:50]
02. Iggy Pop - Passenger [04:40]
03. Underworld - Dark And Long (Dark Train Mix) [09:54]
04. Habanera - Habanera From Carmen [02:08]
05. Sleeper - Statuesque [03:22]
06. David Bowie - Golden Years [04:00]
07. Ice MC - Think About The Way [04:19]
08. Leftfield - A Final Hit [04:55]
09. Heaven 17 - Temptation [03:05]
10. Iggy Pop - Nightclubbing (Baby Doc Remix) [05:51]
11. Fun Boy Three - Our Lips Are Sealed [02:52]
12. Primal Scream - Come Together [04:24]
13. Joy Division - Atmosphere [04:08]
14. Goldie - Inner City Life [03:43]
15. Underworld - Born Slippy/NUXX - Darren Price Mix [06:28]
 
Exact Audio Copy V0.99 prebeta 4 from 23. January 2008

EAC extraction logfile from 5. May 2009, 20:08

Various / Trainspotting #2

Used drive : PIONEER DVD-RW DVR-111D Adapter: 3 ID: 0

Read mode : SecureUtilize accurate stream : YesDefeat audio cache : YesMake use of C2 pointers : No

Read offset correction : 48Overread into Lead-In and Lead-Out : NoFill up missing offset samples with silence : YesDelete leading and trailing silent blocks : NoNull samples used in CRC calculations : YesUsed interface : Native Win32 interface for Win NT & 2000Gap handling : Appended to previous track

Used output format : User Defined EncoderSelected bitrate : 768 kBit/sQuality : HighAdd ID3 tag : NoCommand line compressor : C:\Program Files\Exact Audio Copy\FLAC\FLAC.EXEAdditional command line options : -V -8 -T "artist=%a" -T "title=%t" -T "album=%g" -T "date=%y" -T "tracknumber=%n" -T "genre=%m" %s

TOC of the extracted CD

Track | Start | Length | Start sector | End sector --------------------------------------------------------- 1 | 0:00.00 | 7:50.07 | 0 | 35256 2 | 7:50.07 | 4:40.23 | 35257 | 56279 3 | 12:30.30 | 9:54.25 | 56280 | 100854 4 | 22:24.55 | 2:08.50 | 100855 | 110504 5 | 24:33.30 | 3:22.72 | 110505 | 125726 6 | 27:56.27 | 4:00.33 | 125727 | 143759 7 | 31:56.60 | 4:19.65 | 143760 | 163249 8 | 36:16.50 | 4:55.07 | 163250 | 185381 9 | 41:11.57 | 3:05.38 | 185382 | 199294 10 | 44:17.20 | 5:51.70 | 199295 | 225689 11 | 50:09.15 | 2:52.60 | 225690 | 238649 12 | 53:02.00 | 4:24.55 | 238650 | 258504 13 | 57:26.55 | 4:08.55 | 258505 | 277159 14 | 61:35.35 | 3:43.12 | 277160 | 293896 15 | 65:18.47 | 6:28.43 | 293897 | 323039

Track 1

Filename C:\Documents and Settings\c0utta\Desktop\1997 - Trainspotting #2\01 - (PF Project) - Choose Life.wav

Pre-gap length 0:00:02.00

Peak level 94.2 % Track quality 100.0 % Test CRC 07C0A0C3 Copy CRC 07C0A0C3 Accurately ripped (confidence 22) [8ED80DD8] Copy OK

Track 2

Filename C:\Documents and Settings\c0utta\Desktop\1997 - Trainspotting #2\02 - (Iggy Pop) - The Passenger.wav

Pre-gap length 0:00:00.42

Peak level 92.0 % Track quality 100.0 % Test CRC 571EDF43 Copy CRC 571EDF43 Accurately ripped (confidence 22) [5BC1E9BB] Copy OK

Track 3

Filename C:\Documents and Settings\c0utta\Desktop\1997 - Trainspotting #2\03 - (Underworld) - Dark And Long [Dark Train Mix].wav

Pre-gap length 0:00:01.10

Peak level 95.2 % Track quality 100.0 % Test CRC 0C345E1D Copy CRC 0C345E1D Accurately ripped (confidence 22) [50E41067] Copy OK

Track 4

Filename C:\Documents and Settings\c0utta\Desktop\1997 - Trainspotting #2\04 - (George Bizet) - Habanera [From Carmen].wav

Pre-gap length 0:00:01.40

Peak level 98.0 % Track quality 100.0 % Test CRC 051EFF28 Copy CRC 051EFF28 Accurately ripped (confidence 22) [60D0121F] Copy OK

Track 5

Filename C:\Documents and Settings\c0utta\Desktop\1997 - Trainspotting #2\05 - (Sleeper) - Statuesque.wav

Pre-gap length 0:00:00.73

Peak level 90.5 % Track quality 100.0 % Test CRC 4B9AA703 Copy CRC 4B9AA703 Accurately ripped (confidence 22) [F48090EF] Copy OK

Track 6

Filename C:\Documents and Settings\c0utta\Desktop\1997 - Trainspotting #2\06 - (David Bowie) - Golden Years.wav

Pre-gap length 0:00:01.09

Peak level 94.0 % Track quality 100.0 % Test CRC C7584C8E Copy CRC C7584C8E Accurately ripped (confidence 22) [A561C938] Copy OK

Track 7

Filename C:\Documents and Settings\c0utta\Desktop\1997 - Trainspotting #2\07 - (Ice MC) - Think About The Way.wav

Pre-gap length 0:00:00.97

Peak level 87.3 % Track quality 100.0 % Test CRC B0ED0A5F Copy CRC B0ED0A5F Accurately ripped (confidence 22) [4D45B695] Copy OK

Track 8

Filename C:\Documents and Settings\c0utta\Desktop\1997 - Trainspotting #2\08 - (Leftfield) - A Final Hit.wav

Pre-gap length 0:00:00.10

Peak level 93.0 % Track quality 100.0 % Test CRC 25E9F66C Copy CRC 25E9F66C Accurately ripped (confidence 22) [C4816773] Copy OK

Track 9

Filename C:\Documents and Settings\c0utta\Desktop\1997 - Trainspotting #2\09 - (Heaven 17) - Temptation.wav

Peak level 79.3 % Track quality 100.0 % Test CRC 104ED18A Copy CRC 104ED18A Accurately ripped (confidence 22) [FF09A4B8] Copy OK

Track 10

Filename C:\Documents and Settings\c0utta\Desktop\1997 - Trainspotting #2\10 - (Iggy Pop) - Nightclubbing [Baby Doc Remix].wav

Pre-gap length 0:00:00.97

Peak level 99.3 % Track quality 100.0 % Test CRC 9FC007B5 Copy CRC 9FC007B5 Accurately ripped (confidence 21) [142D7634] Copy OK

Track 11

Filename C:\Documents and Settings\c0utta\Desktop\1997 - Trainspotting #2\11 - (Fun Boy Three) - Our Lips Are Sealed.wav

Pre-gap length 0:00:01.00

Peak level 98.0 % Track quality 100.0 % Test CRC 792E9647 Copy CRC 792E9647 Accurately ripped (confidence 21) [78BF9E45] Copy OK

Track 12

Filename C:\Documents and Settings\c0utta\Desktop\1997 - Trainspotting #2\12 - (Primal Scream) - Come Together.wav

Pre-gap length 0:00:00.64

Peak level 99.1 % Track quality 100.0 % Test CRC 643C5493 Copy CRC 643C5493 Accurately ripped (confidence 22) [564E679B] Copy OK

Track 13

Filename C:\Documents and Settings\c0utta\Desktop\1997 - Trainspotting #2\13 - (Joy Division) - Atmosphere.wav

Pre-gap length 0:00:01.40

Peak level 98.0 % Track quality 99.9 % Test CRC 5A86751B Copy CRC 5A86751B Accurately ripped (confidence 22) [7EE17BF7] Copy OK

Track 14

Filename C:\Documents and Settings\c0utta\Desktop\1997 - Trainspotting #2\14 - (Goldie) - Inner City Life.wav

Pre-gap length 0:00:01.06

Peak level 93.1 % Track quality 99.9 % Test CRC 9FF758D2 Copy CRC 9FF758D2 Accurately ripped (confidence 22) [37A79984] Copy OK

Track 15

Filename C:\Documents and Settings\c0utta\Desktop\1997 - Trainspotting #2\15 - (Underworld) - Born Slippy,NUXX [Darren Price Mix].wav

Pre-gap length 0:00:00.80

Peak level 85.0 % Track quality 100.0 % Test CRC A5E8B07D Copy CRC A5E8B07D Accurately ripped (confidence 21) [B92F51A0] Copy OK

All tracks accurately ripped

No errors occurred

End of status report
 
REM GENRE SoundtrackREM DATE 1997REM DISCID EC10D30FREM COMMENT "ExactAudioCopy v0.99pb4"PERFORMER "Various"TITLE "Trainspotting #2"FILE "1997 - Trainspotting #2\01 - (PF Project) - Choose Life.wav" WAVE TRACK 01 AUDIO TITLE "Choose Life" PERFORMER "PF Project" INDEX 01 00:00:00 TRACK 02 AUDIO TITLE "The Passenger" PERFORMER "Iggy Pop" INDEX 00 07:49:50FILE "1997 - Trainspotting #2\02 - (Iggy Pop) - The Passenger.wav" WAVE INDEX 01 00:00:00 TRACK 03 AUDIO TITLE "Dark And Long [Dark Train Mix]" PERFORMER "Underworld" INDEX 00 04:39:15FILE "1997 - Trainspotting #2\03 - (Underworld) - Dark And Long [Dark Train Mix].wav" WAVE INDEX 01 00:00:00 TRACK 04 AUDIO TITLE "Habanera [From Carmen]" PERFORMER "George Bizet" INDEX 00 09:52:70FILE "1997 - Trainspotting #2\04 - (George Bizet) - Habanera [From Carmen].wav" WAVE INDEX 01 00:00:00 TRACK 05 AUDIO TITLE "Statuesque" PERFORMER "Sleeper" INDEX 00 02:07:70FILE "1997 - Trainspotting #2\05 - (Sleeper) - Statuesque.wav" WAVE INDEX 01 00:00:00 TRACK 06 AUDIO TITLE "Golden Years" PERFORMER "David Bowie" INDEX 00 03:21:65FILE "1997 - Trainspotting #2\06 - (David Bowie) - Golden Years.wav" WAVE INDEX 01 00:00:00 TRACK 07 AUDIO TITLE "Think About The Way" PERFORMER "Ice MC" INDEX 00 03:59:35FILE "1997 - Trainspotting #2\07 - (Ice MC) - Think About The Way.wav" WAVE INDEX 01 00:00:00 TRACK 08 AUDIO TITLE "A Final Hit" PERFORMER "Leftfield" INDEX 00 04:19:57FILE "1997 - Trainspotting #2\08 - (Leftfield) - A Final Hit.wav" WAVE INDEX 01 00:00:00FILE "1997 - Trainspotting #2\09 - (Heaven 17) - Temptation.wav" WAVE TRACK 09 AUDIO TITLE "Temptation" PERFORMER "Heaven 17" INDEX 01 00:00:00 TRACK 10 AUDIO TITLE "Nightclubbing [Baby Doc Remix]" PERFORMER "Iggy Pop" INDEX 00 03:04:40FILE "1997 - Trainspotting #2\10 - (Iggy Pop) - Nightclubbing [Baby Doc Remix].wav" WAVE INDEX 01 00:00:00 TRACK 11 AUDIO TITLE "Our Lips Are Sealed" PERFORMER "Fun Boy Three" INDEX 00 05:50:70FILE "1997 - Trainspotting #2\11 - (Fun Boy Three) - Our Lips Are Sealed.wav" WAVE INDEX 01 00:00:00 TRACK 12 AUDIO TITLE "Come Together" PERFORMER "Primal Scream" INDEX 00 02:52:12FILE "1997 - Trainspotting #2\12 - (Primal Scream) - Come Together.wav" WAVE INDEX 01 00:00:00 TRACK 13 AUDIO TITLE "Atmosphere" PERFORMER "Joy Division" INDEX 00 04:23:25FILE "1997 - Trainspotting #2\13 - (Joy Division) - Atmosphere.wav" WAVE INDEX 01 00:00:00 TRACK 14 AUDIO TITLE "Inner City Life" PERFORMER "Goldie" INDEX 00 04:07:50FILE "1997 - Trainspotting #2\14 - (Goldie) - Inner City Life.wav" WAVE INDEX 01 00:00:00 TRACK 15 AUDIO TITLE "Born Slippy/NUXX [Darren Price Mix]" PERFORMER "Underworld" INDEX 00 03:42:27FILE "1997 - Trainspotting #2\15 - (Underworld) - Born Slippy,NUXX [Darren Price Mix].wav" WAVE INDEX 01 00:00:00
 
REM GENRE SoundtrackREM DATE 1997REM DISCID EC10D30FREM COMMENT "ExactAudioCopy v0.99pb4"PERFORMER "Various"TITLE "Trainspotting #2"FILE "01 - (PF Project) - Choose Life.wav" WAVE TRACK 01 AUDIO TITLE "Choose Life" PERFORMER "PF Project" INDEX 01 00:00:00 TRACK 02 AUDIO TITLE "The Passenger" PERFORMER "Iggy Pop" INDEX 00 07:49:50FILE "02 - (Iggy Pop) - The Passenger.wav" WAVE INDEX 01 00:00:00 TRACK 03 AUDIO TITLE "Dark And Long [Dark Train Mix]" PERFORMER "Underworld" INDEX 00 04:39:15FILE "03 - (Underworld) - Dark And Long [Dark Train Mix].wav" WAVE INDEX 01 00:00:00 TRACK 04 AUDIO TITLE "Habanera [From Carmen]" PERFORMER "George Bizet" INDEX 00 09:52:70FILE "04 - (George Bizet) - Habanera [From Carmen].wav" WAVE INDEX 01 00:00:00 TRACK 05 AUDIO TITLE "Statuesque" PERFORMER "Sleeper" INDEX 00 02:07:70FILE "05 - (Sleeper) - Statuesque.wav" WAVE INDEX 01 00:00:00 TRACK 06 AUDIO TITLE "Golden Years" PERFORMER "David Bowie" INDEX 00 03:21:65FILE "06 - (David Bowie) - Golden Years.wav" WAVE INDEX 01 00:00:00 TRACK 07 AUDIO TITLE "Think About The Way" PERFORMER "Ice MC" INDEX 00 03:59:35FILE "07 - (Ice MC) - Think About The Way.wav" WAVE INDEX 01 00:00:00 TRACK 08 AUDIO TITLE "A Final Hit" PERFORMER "Leftfield" INDEX 00 04:19:57FILE "08 - (Leftfield) - A Final Hit.wav" WAVE INDEX 01 00:00:00FILE "09 - (Heaven 17) - Temptation.wav" WAVE TRACK 09 AUDIO TITLE "Temptation" PERFORMER "Heaven 17" INDEX 01 00:00:00 TRACK 10 AUDIO TITLE "Nightclubbing [Baby Doc Remix]" PERFORMER "Iggy Pop" INDEX 00 03:04:40FILE "10 - (Iggy Pop) - Nightclubbing [Baby Doc Remix].wav" WAVE INDEX 01 00:00:00 TRACK 11 AUDIO TITLE "Our Lips Are Sealed" PERFORMER "Fun Boy Three" INDEX 00 05:50:70FILE "11 - (Fun Boy Three) - Our Lips Are Sealed.wav" WAVE INDEX 01 00:00:00 TRACK 12 AUDIO TITLE "Come Together" PERFORMER "Primal Scream" INDEX 00 02:52:12FILE "12 - (Primal Scream) - Come Together.wav" WAVE INDEX 01 00:00:00 TRACK 13 AUDIO TITLE "Atmosphere" PERFORMER "Joy Division" INDEX 00 04:23:25FILE "13 - (Joy Division) - Atmosphere.wav" WAVE INDEX 01 00:00:00 TRACK 14 AUDIO TITLE "Inner City Life" PERFORMER "Goldie" INDEX 00 04:07:50FILE "14 - (Goldie) - Inner City Life.wav" WAVE INDEX 01 00:00:00 TRACK 15 AUDIO TITLE "Born Slippy/NUXX [Darren Price Mix]" PERFORMER "Underworld" INDEX 00 03:42:27FILE "15 - (Underworld) - Born Slippy,NUXX [Darren Price Mix].wav" WAVE INDEX 01 00:00:00



Трекер:  [ 07-Июл-2011 22:27 ]

  

Скачать .torrent

Размер .torrent файла 21 KB


Размер: 886 MB
Хэш (hash) релиза: b68fcb71280b36324ee799e52ea68838cde2c4fb

Еще никто не оставлял запись к записи скачать торрент На игле Trainspotting # 1 & 2 . Будь первым!

!Обратная связь