Скачать через торрент музыку Гадкий Я Despicable Me - 2010 бесплатно без регистрации torrent

Если у вас наблюдаются проблемы со скриншотами, переходом по ссылками, скачиванием торрентов - проблемы в блокировщике рекламы AdBlock. #хорошегоДня!


Статистика раздачи
Размер:  223 MB   |    Зарегистрирован:  6 лет 9 месяцев   |    .torrent скачан:  58 раз   |   
Раздают:  1  
   
Загрузка...
 
Автор Сообщение

AqvaGen


Гадкий Я / Despicable Me

Жанр: Soundtrack
Год выпуска диска: 2010
Производитель диска: USA
Аудио кодек: FLAC
Тип рипа: tracks+.cue
Битрейт аудио: lossless
Продолжительность: 00:35:11

01 - Pharrell - Despicable Me (04:13)
02 - Pharrell - Fun, Fun, Fun (03:27)
03 - Destinee & Paris - I'm On A Roll (03:12)
04 - The Minions - Minion Mambo (03:05)
05 - The Sylvers - Boogie Fever (03:28)
06 - Robin Thicke - My Life (03:55)
07 - Pharrell - Prettiest Girls (03:21)
08 - Pharrell - Rocket's Theme (04:03)
09 - Bee Gees - You Should Be Dancing (04:18)
10 - Agnes - The Unicorn Song (02:08)

 
Exact Audio Copy V0.99 prebeta 5 from 4. May 2009

EAC extraction logfile from 17. July 2010, 0:10

Various / Despicable Me: Original Motion Picture Soundtrack

Used drive : ATAPI DVD A DH16A1L Adapter: 1 ID: 0

Read mode : SecureUtilize accurate stream : YesDefeat audio cache : YesMake use of C2 pointers : No

Read offset correction : 6Overread into Lead-In and Lead-Out : NoFill up missing offset samples with silence : YesDelete leading and trailing silent blocks : NoNull samples used in CRC calculations : YesUsed interface : Native Win32 interface for Win NT & 2000Gap handling : Appended to previous track

Used output format : User Defined EncoderSelected bitrate : 128 kBit/sQuality : HighAdd ID3 tag : NoCommand line compressor : C:\Program Files (x86)\Exact Audio Copy\Flac\flac.exeAdditional command line options : -V -8 -T "artist=%a" -T "title=%t" -T "album=%g" -T "date=%y" -T "tracknumber=%n" -T "genre=%m" %s

TOC of the extracted CD

Track | Start | Length | Start sector | End sector --------------------------------------------------------- 1 | 0:00.00 | 4:12.73 | 0 | 18972 2 | 4:12.73 | 3:27.05 | 18973 | 34502 3 | 7:40.03 | 3:12.04 | 34503 | 48906 4 | 10:52.07 | 3:05.00 | 48907 | 62781 5 | 13:57.07 | 3:28.36 | 62782 | 78417 6 | 17:25.43 | 3:55.05 | 78418 | 96047 7 | 21:20.48 | 3:20.45 | 96048 | 111092 8 | 24:41.18 | 4:03.08 | 111093 | 129325 9 | 28:44.26 | 4:18.30 | 129326 | 148705 10 | 33:02.56 | 2:08.24 | 148706 | 158329

Track 1

Filename C:\EAC\01 - Despicable Me.wav

Pre-gap length 0:00:02.00

Peak level 97.7 % Track quality 100.0 % Test CRC C83A1058 Copy CRC C83A1058 Track not present in AccurateRip database Copy OK

Track 2

Filename C:\EAC\02 - Fun, Fun, Fun.wav

Peak level 97.7 % Track quality 100.0 % Test CRC 0C26C6BA Copy CRC 0C26C6BA Track not present in AccurateRip database Copy OK

Track 3

Filename C:\EAC\03 - I'm On A Roll.wav

Pre-gap length 0:00:01.10

Peak level 97.7 % Track quality 100.0 % Test CRC 96DC0865 Copy CRC 96DC0865 Track not present in AccurateRip database Copy OK

Track 4

Filename C:\EAC\04 - Minion Mambo.wav

Pre-gap length 0:00:01.06

Peak level 97.7 % Track quality 100.0 % Test CRC D6A9AF80 Copy CRC D6A9AF80 Track not present in AccurateRip database Copy OK

Track 5

Filename C:\EAC\05 - Boogie Fever.wav

Pre-gap length 0:00:01.02

Peak level 97.7 % Track quality 100.0 % Test CRC 12F22A97 Copy CRC 12F22A97 Track not present in AccurateRip database Copy OK

Track 6

Filename C:\EAC\06 - My Life.wav

Peak level 97.7 % Track quality 100.0 % Test CRC 430176C0 Copy CRC 430176C0 Track not present in AccurateRip database Copy OK

Track 7

Filename C:\EAC\07 - Prettiest Girls.wav

Pre-gap length 0:00:01.13

Peak level 97.7 % Track quality 100.0 % Test CRC 96A1949D Copy CRC 96A1949D Track not present in AccurateRip database Copy OK

Track 8

Filename C:\EAC\08 - Rocket's Theme.wav

Pre-gap length 0:00:01.09

Peak level 82.3 % Track quality 100.0 % Test CRC 70E0F720 Copy CRC 70E0F720 Track not present in AccurateRip database Copy OK

Track 9

Filename C:\EAC\09 - You Should Be Dancing.wav

Peak level 97.7 % Track quality 100.0 % Test CRC BB535A98 Copy CRC BB535A98 Track not present in AccurateRip database Copy OK

Track 10

Filename C:\EAC\10 - The Unicorn Song.wav

Peak level 97.7 % Track quality 100.0 % Test CRC 34A860A8 Copy CRC 34A860A8 Track not present in AccurateRip database Copy OK

None of the tracks are present in the AccurateRip database

No errors occurred

End of status report
 
REM GENRE SoundtrackREM DATE 2010REM DISCID 8B083F0AREM COMMENT "ExactAudioCopy v0.99pb5"PERFORMER "Various"TITLE "Despicable Me: Original Motion Picture Soundtrack"FILE "01 - Despicable Me.wav" WAVE TRACK 01 AUDIO TITLE "Despicable Me" PERFORMER "Pharrell" INDEX 01 00:00:00FILE "02 - Fun, Fun, Fun.wav" WAVE TRACK 02 AUDIO TITLE "Fun, Fun, Fun" PERFORMER "Pharrell" INDEX 01 00:00:00 TRACK 03 AUDIO TITLE "I'm On A Roll" PERFORMER "Destinee & Paris" INDEX 00 03:25:72FILE "03 - I'm On A Roll.wav" WAVE INDEX 01 00:00:00 TRACK 04 AUDIO TITLE "Minion Mambo" PERFORMER "The Minions" INDEX 00 03:10:74FILE "04 - Minion Mambo.wav" WAVE INDEX 01 00:00:00 TRACK 05 AUDIO TITLE "Boogie Fever" PERFORMER "The Sylvers" INDEX 00 03:03:73FILE "05 - Boogie Fever.wav" WAVE INDEX 01 00:00:00FILE "06 - My Life.wav" WAVE TRACK 06 AUDIO TITLE "My Life" PERFORMER "Robin Thicke" INDEX 01 00:00:00 TRACK 07 AUDIO TITLE "Prettiest Girls" PERFORMER "Pharrell" INDEX 00 03:53:70FILE "07 - Prettiest Girls.wav" WAVE INDEX 01 00:00:00 TRACK 08 AUDIO TITLE "Rocket's Theme" PERFORMER "Pharrell" INDEX 00 03:19:38FILE "08 - Rocket's Theme.wav" WAVE INDEX 01 00:00:00FILE "09 - You Should Be Dancing.wav" WAVE TRACK 09 AUDIO TITLE "You Should Be Dancing" PERFORMER "Bee Gees" INDEX 01 00:00:00FILE "10 - The Unicorn Song.wav" WAVE TRACK 10 AUDIO TITLE "The Unicorn Song" PERFORMER "Agnes" INDEX 01 00:00:00



Трекер:  [ 19-Дек-2010 15:05 ]

  

Скачать .torrent

Размер .torrent файла 18 KB


Размер: 223 MB
Хэш (hash) релиза: 929008b26a3e7a0a48b576292dc02e1b1e576332

Торренты, похожие на Гадкий Я Despicable Me - 2010 скачать торрент

Форум Название Автор Размер S L Добавлен
Саундтреки к фильмам и мультфильмам (mp3) ·· (Soundtrack) Гадкий Я / Despicable Me - 2010 [MP3 (tracks) 320 kbps] Phoenix 8457304981 MB 2 0 1292265000

21:30

13-Дек-10

Саундтреки к фильмам и мультфильмам (mp3) ·· (Score) Гадкий Я / Despicable Me [Promo] (by Hans Zimmer) - 2010, MP3 (tracks), 192 kbps AqvaGen 2557729424 MB 2 0 1292265272

21:34

13-Дек-10

bot

Топик был перенесен в форум Саундтреки к фильмам и мультфильмам (lossless)

Перенес AqvaGen

Mos

 !  Mos:
Перезалить обложку на youpic.su или fastpic.ru.

AqvaGen

Перезалил на фастпик

Ksyuk

спасибо большое
давно искала первый саунд в гуд качестве

Хотите добавить комментарий к записи скачать торрент Гадкий Я Despicable Me - 2010

!Обратная связь