Скачать через торрент музыку Hans Zimmer, Elton John & VA - The Lion King Король Лев - 1994, FLAC бесплатно без регистрации torrent

Если у вас наблюдаются проблемы со скриншотами, переходом по ссылками, скачиванием торрентов - проблемы в блокировщике рекламы AdBlock. #хорошегоДня!


Статистика раздачи
Размер:  276 MB   |    Зарегистрирован:  6 лет 5 месяцев   |    .torrent скачан:  78 раз   |   
Раздают:  1  
   
Загрузка...
 
Автор Сообщение

Galfimbul

avatar Galfimbul


Hans Zimmer, Elton John & VA - The Lion King / Король Лев

Жанр: Soundtrack
Год выпуска диска: 1994
Производитель диска: Germany
Аудио кодек: FLAC
Тип рипа: image+.cue
Битрейт аудио: lossless
Продолжительность: 46:28
Лейбл, каталог #: Mercury, 522 690-2
EAN/UPC: 731452269027

Трэклист: (полный трэклист см. ниже под спойлером)
01. Circle Of Life [0:03:59.89]
02. I Just Can't Wait To Be King [0:02:50.97]
03. Be Prepared [0:03:40.20]
04. Hakuna Matata [0:03:33.66]
05. Can You Feel The Love Tonight [0:02:57.69]
06. This Land [0:02:55.44]
07. ...To Die For [0:04:17.66]
08. Under The Stars [0:03:45.22]
09. King Of Pride Rock [0:05:59.06]
10. Circle Of Life [0:04:51.66]
11. I Just Can't Wait To Be King [0:03:36.97]
12. Can You Feel The Love Tonight (End Title) [0:03:59.60]
01. Carmen Twillie & Lebo M. - Circle Of Life [0:03:59.89]
02. Jason Weaver (with Rowan Atkinson & Laura Williams) - I Just Can't Wait To Be King [0:02:50.97]
03. Jeremy Irons (with Whoopi Goldberg & Cheech Marin & Jim Cummings) - Be Prepared [0:03:40.20]
04. Nathan Lane & Ernie Sabella (with Jason Weaver & Joseph Williams) - Hakuna Matata [0:03:33.66]
05. Joseph Williams & Sally Dworsky (with Nathan Lane, Ernie Sabella & Kristle Edwards) - Can You Feel The Love Tonight [0:02:57.69]
06. Score (Hans Zimmer / Instrumental) - This Land [0:02:55.44]
07. Score (Hans Zimmer / Instrumental) - ...To Die For [0:04:17.66]
08. Score (Hans Zimmer / Instrumental) - Under The Stars [0:03:45.22]
09. Score (Hans Zimmer / Instrumental) - King Of Pride Rock [0:05:59.06]
10. Elton John - Circle Of Life [0:04:51.66]
11. Elton John - I Just Can't Wait To Be King [0:03:36.97]
12. Elton John - Can You Feel The Love Tonight (End Title) [0:03:59.60]
 
Exact Audio Copy V0.99 prebeta 5 from 4. May 2009

EAC extraction logfile from 2. February 2010, 0:58

Soundtrack / The Lion King

Used drive : HL-DT-STDVDRAM_GSA-T20N Adapter: 0 ID: 0

Read mode : SecureUtilize accurate stream : YesDefeat audio cache : YesMake use of C2 pointers : No

Read offset correction : 667Overread into Lead-In and Lead-Out : NoFill up missing offset samples with silence : YesDelete leading and trailing silent blocks : NoNull samples used in CRC calculations : YesUsed interface : Installed external ASPI interface

Used output format : User Defined EncoderSelected bitrate : 768 kBit/sQuality : HighAdd ID3 tag : NoCommand line compressor : C:\Program Files\Exact Audio Copy\Flac\flac.exeAdditional command line options : -8 -V %s

TOC of the extracted CD

Track | Start | Length | Start sector | End sector --------------------------------------------------------- 1 | 0:00.00 | 3:59.67 | 0 | 17991 2 | 3:59.67 | 2:50.73 | 17992 | 30814 3 | 6:50.65 | 3:40.15 | 30815 | 47329 4 | 10:31.05 | 3:33.50 | 47330 | 63354 5 | 14:04.55 | 2:57.52 | 63355 | 76681 6 | 17:02.32 | 2:55.33 | 76682 | 89839 7 | 19:57.65 | 4:17.50 | 89840 | 109164 8 | 24:15.40 | 3:45.17 | 109165 | 126056 9 | 28:00.57 | 5:59.05 | 126057 | 152986 10 | 33:59.62 | 4:51.50 | 152987 | 174861 11 | 38:51.37 | 3:36.73 | 174862 | 191134 12 | 42:28.35 | 3:59.45 | 191135 | 209104

Range status and errors

Selected range

Filename C:\Music\Soundtrack - The Lion King.wav

Peak level 98.3 % Range quality 100.0 % Test CRC CA15BECC Copy CRC CA15BECC Copy OK

No errors occurred

AccurateRip summary

Track 1 accurately ripped (confidence 59) [A523354E]Track 2 accurately ripped (confidence 60) [451BC408]Track 3 accurately ripped (confidence 60) [1D1D59F7]Track 4 accurately ripped (confidence 61) [C9E60379]Track 5 accurately ripped (confidence 60) [C96A528C]Track 6 accurately ripped (confidence 61) [56BE08EE]Track 7 accurately ripped (confidence 62) [CC56CC4A]Track 8 accurately ripped (confidence 61) [E56E42DB]Track 9 accurately ripped (confidence 59) [45FC9395]Track 10 accurately ripped (confidence 59) [2644BF01]Track 11 accurately ripped (confidence 61) [47CF4212]Track 12 accurately ripped (confidence 59) [AC60C54E]

All tracks accurately ripped

End of status report


Трекер:  [ 07-Июл-2011 22:28 ]

  

Скачать .torrent

Размер .torrent файла 12 KB


Размер: 276 MB
Хэш (hash) релиза: c916f837d7089462114ff6e9bafcfcf64346e2ec

Еще никто не оставлял запись к записи скачать торрент Hans Zimmer, Elton John & VA - The Lion King Король Лев - 1994, FLAC . Будь первым!

!Обратная связь