Скачать через торрент музыку Безумцы Mad Men: Vol. 1 & 2 бесплатно без регистрации torrent

Если у вас наблюдаются проблемы со скриншотами, переходом по ссылками, скачиванием торрентов - проблемы в блокировщике рекламы AdBlock. #хорошегоДня!


Статистика раздачи
Размер:  416 MB   |    Зарегистрирован:  6 лет 11 месяцев   |    .torrent скачан:  1805 раз   |   
Раздают:  1  
   
Загрузка...
 
Автор Сообщение

AqvaGen


Безумцы / Mad Men

Жанр: Soundtrack || Производитель: Lionsgate Records || Аудио кодек: FLAC || Тип рипа: tracks+.cue || Битрейт аудио: lossless
2008 - Volume 1
01 - Vic Damone - On the Street Where You Live (02:42)
02 - The McGuire Sisters - Volare (02:40)
03 - David Carbonara - Lipstick (02:45)
04 - Bobby Vinton - P.S. I Love You (02:19)
05 - Rosemary Clooney - Botch-A-Me (02:18)
06 - Julie London - Fly Me to the Moon (In Other Words) (02:31)
07 - Gordon Jenkins - Caravan (02:16)
08 - Ella Fitzgerald - Manhattan (02:49)
09 - The Andrews Sisters - I Can Dream, Can't I? (02:41)
10 - Robert Maxwell - Shangri-La (02:05)
11 - David Carbonara - Babylon (01:46)
12 - David Carbonara - Mad Men Suite (03:37)
13 - Aceyalone & RJD2 - A Beautiful Mine (05:29)

Продолжительность: 00:35:42
 
Exact Audio Copy V0.99 prebeta 4 from 23. January 2008

EAC extraction logfile from 7. March 2009, 17:36

Various / Mad Men: Music From the Series, Vol. 1

Used drive : TSSTcorpDVD+-RW TS-H653B Adapter: 0 ID: 0

Read mode : SecureUtilize accurate stream : YesDefeat audio cache : YesMake use of C2 pointers : No

Read offset correction : 6Overread into Lead-In and Lead-Out : NoFill up missing offset samples with silence : YesDelete leading and trailing silent blocks : NoNull samples used in CRC calculations : YesUsed interface : Native Win32 interface for Win NT & 2000Gap handling : Appended to previous track

Used output format : User Defined EncoderSelected bitrate : 192 kBit/sQuality : HighAdd ID3 tag : NoCommand line compressor : C:\Program Files\Exact Audio Copy\Flac\flac.exeAdditional command line options : -8 -A tukey(0.25) -A gauss(0.1875) -b 4096 -V -T "artist=%a" -T "title=%t" -T "album=%g" -T "date=%y" -T "tracknumber=%n" -T "genre=%m" %s

TOC of the extracted CD

Track | Start | Length | Start sector | End sector --------------------------------------------------------- 1 | 0:00.00 | 2:42.10 | 0 | 12159 2 | 2:42.10 | 2:40.19 | 12160 | 24178 3 | 5:22.29 | 2:45.03 | 24179 | 36556 4 | 8:07.32 | 2:18.61 | 36557 | 46967 5 | 10:26.18 | 2:18.31 | 46968 | 57348 6 | 12:44.49 | 2:31.26 | 57349 | 68699 7 | 15:16.00 | 2:16.02 | 68700 | 78901 8 | 17:32.02 | 2:48.64 | 78902 | 91565 9 | 20:20.66 | 2:40.57 | 91566 | 103622 10 | 23:01.48 | 2:05.30 | 103623 | 113027 11 | 25:07.03 | 1:45.45 | 113028 | 120947 12 | 26:52.48 | 3:37.23 | 120948 | 137245 13 | 30:29.71 | 5:28.54 | 137246 | 161899

Track 1

Filename C:\Documents and Settings\Administrator\Desktop\!Music\Various Artists - Mad Men - Music From the Series, Vol. 1 FLAC\01 - Vic Damone - On the Street Where You Live.wav

Pre-gap length 0:00:02.00

Peak level 94.4 % Track quality 100.0 % Test CRC C103E063 Copy CRC C103E063 Track not present in AccurateRip database Copy OK

Track 2

Filename C:\Documents and Settings\Administrator\Desktop\!Music\Various Artists - Mad Men - Music From the Series, Vol. 1 FLAC\02 - The McGuire Sisters - Volare.wav

Pre-gap length 0:00:00.74

Peak level 94.4 % Track quality 100.0 % Test CRC 2DCB11C3 Copy CRC 2DCB11C3 Track not present in AccurateRip database Copy OK

Track 3

Filename C:\Documents and Settings\Administrator\Desktop\!Music\Various Artists - Mad Men - Music From the Series, Vol. 1 FLAC\03 - David Carbonara - Lipstick.wav

Pre-gap length 0:00:02.01

Peak level 97.7 % Track quality 99.9 % Test CRC 6CDF0E55 Copy CRC 6CDF0E55 Track not present in AccurateRip database Copy OK

Track 4

Filename C:\Documents and Settings\Administrator\Desktop\!Music\Various Artists - Mad Men - Music From the Series, Vol. 1 FLAC\04 - Bobby Vinton - P.S. I Love You.wav

Pre-gap length 0:00:01.62

Peak level 94.4 % Track quality 99.9 % Test CRC FC6D614F Copy CRC FC6D614F Track not present in AccurateRip database Copy OK

Track 5

Filename C:\Documents and Settings\Administrator\Desktop\!Music\Various Artists - Mad Men - Music From the Series, Vol. 1 FLAC\05 - Rosemary Clooney - Botch-A-Me.wav

Pre-gap length 0:00:02.44

Peak level 94.4 % Track quality 100.0 % Test CRC DB7D6421 Copy CRC DB7D6421 Track not present in AccurateRip database Copy OK

Track 6

Filename C:\Documents and Settings\Administrator\Desktop\!Music\Various Artists - Mad Men - Music From the Series, Vol. 1 FLAC\06 - Julie London - Fly Me to the Moon (In Other Words).wav

Pre-gap length 0:00:01.44

Peak level 94.4 % Track quality 100.0 % Test CRC E78CE83C Copy CRC E78CE83C Track not present in AccurateRip database Copy OK

Track 7

Filename C:\Documents and Settings\Administrator\Desktop\!Music\Various Artists - Mad Men - Music From the Series, Vol. 1 FLAC\07 - Gordon Jenkins - Caravan.wav

Peak level 94.4 % Track quality 100.0 % Test CRC 12ADA0C0 Copy CRC 12ADA0C0 Track not present in AccurateRip database Copy OK

Track 8

Filename C:\Documents and Settings\Administrator\Desktop\!Music\Various Artists - Mad Men - Music From the Series, Vol. 1 FLAC\08 - Ella Fitzgerald - Manhattan.wav

Pre-gap length 0:00:01.96

Peak level 94.4 % Track quality 100.0 % Test CRC 121580AB Copy CRC 121580AB Track not present in AccurateRip database Copy OK

Track 9

Filename C:\Documents and Settings\Administrator\Desktop\!Music\Various Artists - Mad Men - Music From the Series, Vol. 1 FLAC\09 - The Andrews Sisters - I Can Dream, Can't I .wav

Peak level 94.4 % Track quality 100.0 % Test CRC 47931FB6 Copy CRC 47931FB6 Track not present in AccurateRip database Copy OK

Track 10

Filename C:\Documents and Settings\Administrator\Desktop\!Music\Various Artists - Mad Men - Music From the Series, Vol. 1 FLAC\10 - Robert Maxwell - Shangri-La.wav

Pre-gap length 0:00:01.05

Peak level 94.4 % Track quality 100.0 % Test CRC CF7FC284 Copy CRC CF7FC284 Track not present in AccurateRip database Copy OK

Track 11

Filename C:\Documents and Settings\Administrator\Desktop\!Music\Various Artists - Mad Men - Music From the Series, Vol. 1 FLAC\11 - David Carbonara - Babylon.wav

Pre-gap length 0:00:02.41

Peak level 87.0 % Track quality 99.8 % Test CRC A306DE29 Copy CRC A306DE29 Track not present in AccurateRip database Copy OK

Track 12

Filename C:\Documents and Settings\Administrator\Desktop\!Music\Various Artists - Mad Men - Music From the Series, Vol. 1 FLAC\12 - David Carbonara - Mad Men Suite.wav

Pre-gap length 0:00:00.56

Peak level 87.0 % Track quality 100.0 % Test CRC 348E0F29 Copy CRC 348E0F29 Track not present in AccurateRip database Copy OK

Track 13

Filename C:\Documents and Settings\Administrator\Desktop\!Music\Various Artists - Mad Men - Music From the Series, Vol. 1 FLAC\13 - Aceyalone & RJD2 - A Beautiful Mine.wav

Pre-gap length 0:00:01.93

Peak level 96.6 % Track quality 99.9 % Test CRC 97C4F4CA Copy CRC 97C4F4CA Track not present in AccurateRip database Copy OK

None of the tracks are present in the AccurateRip database

No errors occurred

End of status report
 
REM GENRE SoundtrackREM DATE 2008REM DISCID A8086E0DREM COMMENT "ExactAudioCopy v0.99pb4"PERFORMER "Various"TITLE "Mad Men: Music From the Series, Vol. 1"FILE "01 - Vic Damone - On the Street Where You Live.wav" WAVE TRACK 01 AUDIO TITLE "On the Street Where You Live" PERFORMER "Vic Damone" INDEX 01 00:00:00 TRACK 02 AUDIO TITLE "Volare" PERFORMER "The McGuire Sisters" INDEX 00 02:41:29FILE "02 - The McGuire Sisters - Volare.wav" WAVE INDEX 01 00:00:00 TRACK 03 AUDIO TITLE "Lipstick" PERFORMER "David Carbonara" INDEX 00 02:38:18FILE "03 - David Carbonara - Lipstick.wav" WAVE INDEX 01 00:00:00 TRACK 04 AUDIO TITLE "P.S. I Love You" PERFORMER "Bobby Vinton" INDEX 00 02:43:31FILE "04 - Bobby Vinton - P.S. I Love You.wav" WAVE INDEX 01 00:00:00 TRACK 05 AUDIO TITLE "Botch-A-Me" PERFORMER "Rosemary Clooney" INDEX 00 02:16:28FILE "05 - Rosemary Clooney - Botch-A-Me.wav" WAVE INDEX 01 00:00:00 TRACK 06 AUDIO TITLE "Fly Me to the Moon (In Other Words)" PERFORMER "Julie London" INDEX 00 02:16:73FILE "06 - Julie London - Fly Me to the Moon (In Other Words).wav" WAVE INDEX 01 00:00:00FILE "07 - Gordon Jenkins - Caravan.wav" WAVE TRACK 07 AUDIO TITLE "Caravan" PERFORMER "Gordon Jenkins" INDEX 01 00:00:00 TRACK 08 AUDIO TITLE "Manhattan" PERFORMER "Ella Fitzgerald" INDEX 00 02:14:05FILE "08 - Ella Fitzgerald - Manhattan.wav" WAVE INDEX 01 00:00:00FILE "09 - The Andrews Sisters - I Can Dream, Can't I .wav" WAVE TRACK 09 AUDIO TITLE "I Can Dream, Can't I?" PERFORMER "The Andrews Sisters" INDEX 01 00:00:00 TRACK 10 AUDIO TITLE "Shangri-La" PERFORMER "Robert Maxwell" INDEX 00 02:39:53FILE "10 - Robert Maxwell - Shangri-La.wav" WAVE INDEX 01 00:00:00 TRACK 11 AUDIO TITLE "Babylon" PERFORMER "David Carbonara" INDEX 00 02:02:74FILE "11 - David Carbonara - Babylon.wav" WAVE INDEX 01 00:00:00 TRACK 12 AUDIO TITLE "Mad Men Suite" PERFORMER "David Carbonara" INDEX 00 01:45:03FILE "12 - David Carbonara - Mad Men Suite.wav" WAVE INDEX 01 00:00:00 TRACK 13 AUDIO TITLE "A Beautiful Mine" PERFORMER "Aceyalone & RJD2" INDEX 00 03:35:28FILE "13 - Aceyalone & RJD2 - A Beautiful Mine.wav" WAVE INDEX 01 00:00:00

2009 - Volume 2
01 - Peter, Paul and Mary - Early In The Morning (01:36)
02 - Baby Washington & The Plants - Congratulations Honey (02:39)
03 - David Carbonara - How Mable Get Sable Cha Cha Cha (02:07)
04 - Jack Jones - Lollipops and Roses (04:06)
05 - The Decemberists - The Infanta (05:09)
06 - Perry Como - Blue Room (03:31)
07 - Brenda Lee - Break It To Me Gently (02:39)
08 - The Tornadoes - Telstar (03:19)
09 - Chubby Checker - Let's Twist Again (02:18)
10 - Helene Smith - Pot Can't Talk About The Kettle (03:05)
11 - Edd Henry - Crooked Woman (02:54)
12 - Jim Jacobsen - A Beautiful Mine (retro remix) (03:59)

Продолжительность: 00:37:14
 
X Lossless Decoder version 20091230 (115.2)

XLD extraction logfile from 2010-01-06 00:28:13 -0800

Various Artists / Mad Men: Music From the Series, Vol. 2

Used drive : MATSHITA DVD-R UJ-868 (revision KB19)

Use cdparanoia mode : YES (CDParanoia III 10.2 engine)Disable audio cache : OK for the drive with cache less than 2750KBMake use of C2 pointers : NORead offset correction : 102Max retry count : 100

TOC of the extracted CD Track | Start | Length | Start sector | End sector --------------------------------------------------------- 1 | 00:00:00 | 01:35:38 | 0 | 7162 2 | 01:35:38 | 02:39:06 | 7163 | 19093 3 | 04:14:44 | 02:07:14 | 19094 | 28632 4 | 06:21:58 | 04:05:68 | 28633 | 47075 5 | 10:27:51 | 05:08:44 | 47076 | 70219 6 | 15:36:20 | 03:31:32 | 70220 | 86076 7 | 19:07:52 | 02:38:53 | 86077 | 97979 8 | 21:46:30 | 03:18:72 | 97980 | 112901 9 | 25:05:27 | 02:18:33 | 112902 | 123284 10 | 27:23:60 | 03:05:19 | 123285 | 137178 11 | 30:29:04 | 02:54:02 | 137179 | 150230 12 | 33:23:06 | 03:58:67 | 150231 | 168147

Track 01 Filename : /Users/kayleigh/Desktop/Mad Men/01 Peter, Paul and Mary - Early In The Morning.flac /Users/kayleigh/Desktop/Mad Men/01 Peter, Paul and Mary - Early In The Morning.mp3

Pre-gap length : 00:02:00

CRC32 hash (test run) : EB853172 CRC32 hash : EB853172 CRC32 hash (skip zero) : 1ADE6F8D AccurateRip signature : 72EA16F3 ->Track not present in AccurateRip database. Statistics Read error : 0 Skipped (treated as error) : 0 Edge jitter error (maybe fixed) : 0 Atom jitter error (maybe fixed) : 0 Drift error (maybe fixed) : 0 Dropped bytes error (maybe fixed) : 0 Duplicated bytes error (maybe fixed) : 0

Track 02 Filename : /Users/kayleigh/Desktop/Mad Men/02 Baby Washington & The Plants - Congratulations Honey.flac /Users/kayleigh/Desktop/Mad Men/02 Baby Washington & The Plants - Congratulations Honey.mp3

CRC32 hash (test run) : 9559E410 CRC32 hash : 9559E410 CRC32 hash (skip zero) : 62FA5D21 AccurateRip signature : D3DA07C9 ->Track not present in AccurateRip database. Statistics Read error : 0 Skipped (treated as error) : 0 Edge jitter error (maybe fixed) : 0 Atom jitter error (maybe fixed) : 0 Drift error (maybe fixed) : 0 Dropped bytes error (maybe fixed) : 0 Duplicated bytes error (maybe fixed) : 0

Track 03 Filename : /Users/kayleigh/Desktop/Mad Men/03 David Carbonara - How Mable Get Sable Cha Cha Cha.flac /Users/kayleigh/Desktop/Mad Men/03 David Carbonara - How Mable Get Sable Cha Cha Cha.mp3

CRC32 hash (test run) : FEE45B49 CRC32 hash : FEE45B49 CRC32 hash (skip zero) : 09136026 AccurateRip signature : D9114EFA ->Track not present in AccurateRip database. Statistics Read error : 0 Skipped (treated as error) : 0 Edge jitter error (maybe fixed) : 0 Atom jitter error (maybe fixed) : 0 Drift error (maybe fixed) : 0 Dropped bytes error (maybe fixed) : 0 Duplicated bytes error (maybe fixed) : 0

Track 04 Filename : /Users/kayleigh/Desktop/Mad Men/04 Jack Jones - Lollipops and Roses.flac /Users/kayleigh/Desktop/Mad Men/04 Jack Jones - Lollipops and Roses.mp3

Pre-gap length : 00:01:12

CRC32 hash (test run) : E2B7C215 CRC32 hash : E2B7C215 CRC32 hash (skip zero) : FAE0E14F AccurateRip signature : 835122D5 ->Track not present in AccurateRip database. Statistics Read error : 0 Skipped (treated as error) : 0 Edge jitter error (maybe fixed) : 0 Atom jitter error (maybe fixed) : 0 Drift error (maybe fixed) : 0 Dropped bytes error (maybe fixed) : 0 Duplicated bytes error (maybe fixed) : 0

Track 05 Filename : /Users/kayleigh/Desktop/Mad Men/05 The Decemberists - The Infanta.flac /Users/kayleigh/Desktop/Mad Men/05 The Decemberists - The Infanta.mp3

Pre-gap length : 00:01:02

CRC32 hash (test run) : 5A690DCD CRC32 hash : 5A690DCD CRC32 hash (skip zero) : 557E7110 AccurateRip signature : 16566708 ->Track not present in AccurateRip database. Statistics Read error : 0 Skipped (treated as error) : 0 Edge jitter error (maybe fixed) : 0 Atom jitter error (maybe fixed) : 0 Drift error (maybe fixed) : 0 Dropped bytes error (maybe fixed) : 0 Duplicated bytes error (maybe fixed) : 0

Track 06 Filename : /Users/kayleigh/Desktop/Mad Men/06 Perry Como - Blue Room.flac /Users/kayleigh/Desktop/Mad Men/06 Perry Como - Blue Room.mp3

Pre-gap length : 00:01:32

CRC32 hash (test run) : ACCE9AE5 CRC32 hash : ACCE9AE5 CRC32 hash (skip zero) : 8B411846 AccurateRip signature : FBF0561A ->Track not present in AccurateRip database. Statistics Read error : 0 Skipped (treated as error) : 0 Edge jitter error (maybe fixed) : 0 Atom jitter error (maybe fixed) : 0 Drift error (maybe fixed) : 0 Dropped bytes error (maybe fixed) : 0 Duplicated bytes error (maybe fixed) : 0

Track 07 Filename : /Users/kayleigh/Desktop/Mad Men/07 Brenda Lee - Break It To Me Gently.flac /Users/kayleigh/Desktop/Mad Men/07 Brenda Lee - Break It To Me Gently.mp3

CRC32 hash (test run) : CCC49441 CRC32 hash : CCC49441 CRC32 hash (skip zero) : 21DCB167 AccurateRip signature : 9F1AA19B ->Track not present in AccurateRip database. Statistics Read error : 0 Skipped (treated as error) : 0 Edge jitter error (maybe fixed) : 0 Atom jitter error (maybe fixed) : 0 Drift error (maybe fixed) : 0 Dropped bytes error (maybe fixed) : 0 Duplicated bytes error (maybe fixed) : 0

Track 08 Filename : /Users/kayleigh/Desktop/Mad Men/08 The Tornadoes - Telstar.flac /Users/kayleigh/Desktop/Mad Men/08 The Tornadoes - Telstar.mp3

CRC32 hash (test run) : CC6D6745 CRC32 hash : CC6D6745 CRC32 hash (skip zero) : 1B88D169 AccurateRip signature : A4332E31 ->Track not present in AccurateRip database. Statistics Read error : 0 Skipped (treated as error) : 0 Edge jitter error (maybe fixed) : 0 Atom jitter error (maybe fixed) : 0 Drift error (maybe fixed) : 0 Dropped bytes error (maybe fixed) : 0 Duplicated bytes error (maybe fixed) : 0

Track 09 Filename : /Users/kayleigh/Desktop/Mad Men/09 Chubby Checker - Let's Twist Again.flac /Users/kayleigh/Desktop/Mad Men/09 Chubby Checker - Let's Twist Again.mp3

Pre-gap length : 00:01:08

CRC32 hash (test run) : ACFAFCD5 CRC32 hash : ACFAFCD5 CRC32 hash (skip zero) : 21C0BA14 AccurateRip signature : A694CEC6 ->Track not present in AccurateRip database. Statistics Read error : 0 Skipped (treated as error) : 0 Edge jitter error (maybe fixed) : 0 Atom jitter error (maybe fixed) : 0 Drift error (maybe fixed) : 0 Dropped bytes error (maybe fixed) : 0 Duplicated bytes error (maybe fixed) : 0

Track 10 Filename : /Users/kayleigh/Desktop/Mad Men/10 Helene Smith - Pot Can't Talk About The Kettle.flac /Users/kayleigh/Desktop/Mad Men/10 Helene Smith - Pot Can't Talk About The Kettle.mp3

CRC32 hash (test run) : FC4B108C CRC32 hash : FC4B108C CRC32 hash (skip zero) : 5E97E60A AccurateRip signature : 8143D7E2 ->Track not present in AccurateRip database. Statistics Read error : 0 Skipped (treated as error) : 0 Edge jitter error (maybe fixed) : 0 Atom jitter error (maybe fixed) : 0 Drift error (maybe fixed) : 0 Dropped bytes error (maybe fixed) : 0 Duplicated bytes error (maybe fixed) : 0

Track 11 Filename : /Users/kayleigh/Desktop/Mad Men/11 Edd Henry - Crooked Woman.flac /Users/kayleigh/Desktop/Mad Men/11 Edd Henry - Crooked Woman.mp3

Pre-gap length : 00:01:05

CRC32 hash (test run) : 5203DEC5 CRC32 hash : 5203DEC5 CRC32 hash (skip zero) : 8615D667 AccurateRip signature : 6F627DC4 ->Track not present in AccurateRip database. Statistics Read error : 0 Skipped (treated as error) : 0 Edge jitter error (maybe fixed) : 0 Atom jitter error (maybe fixed) : 0 Drift error (maybe fixed) : 0 Dropped bytes error (maybe fixed) : 0 Duplicated bytes error (maybe fixed) : 0

Track 12 Filename : /Users/kayleigh/Desktop/Mad Men/12 Jim Jacobsen - A Beautiful Mine (retro remix).flac /Users/kayleigh/Desktop/Mad Men/12 Jim Jacobsen - A Beautiful Mine (retro remix).mp3

Pre-gap length : 00:01:43

CRC32 hash (test run) : 60F184DD CRC32 hash : 60F184DD CRC32 hash (skip zero) : D2C69EAB AccurateRip signature : D0B2B48A ->Track not present in AccurateRip database. Statistics Read error : 0 Skipped (treated as error) : 0 Edge jitter error (maybe fixed) : 0 Atom jitter error (maybe fixed) : 0 Drift error (maybe fixed) : 0 Dropped bytes error (maybe fixed) : 0 Duplicated bytes error (maybe fixed) : 0

No errors occurred

End of status report
 
TITLE "Mad Men: Music From the Series, Vol. 2"CATALOG 0856968001548REM GENRE "Soundtrack"REM DATE 2009FILE "01 Peter, Paul and Mary - Early In The Morning.wav" WAVE TRACK 01 AUDIO TITLE "Early In The Morning" PERFORMER "Peter, Paul and Mary" ISRC USCK30803102 INDEX 01 00:00:00FILE "02 Baby Washington & The Plants - Congratulations Honey.wav" WAVE TRACK 02 AUDIO TITLE "Congratulations Honey" PERFORMER "Baby Washington & The Plants" ISRC USCK30803103 INDEX 01 00:00:00FILE "03 David Carbonara - How Mable Get Sable Cha Cha Cha.wav" WAVE TRACK 03 AUDIO TITLE "How Mable Get Sable Cha Cha Cha" PERFORMER "David Carbonara" ISRC USCK30803104 INDEX 01 00:00:00 TRACK 04 AUDIO TITLE "Lollipops and Roses" PERFORMER "Jack Jones" ISRC USCK30803106 INDEX 00 02:06:02FILE "04 Jack Jones - Lollipops and Roses.wav" WAVE INDEX 01 00:00:00 TRACK 05 AUDIO TITLE "The Infanta" PERFORMER "The Decemberists" ISRC USCK30803107 INDEX 00 04:04:66FILE "05 The Decemberists - The Infanta.wav" WAVE INDEX 01 00:00:00 TRACK 06 AUDIO TITLE "Blue Room" PERFORMER "Perry Como" ISRC USCK30803108 INDEX 00 05:07:12FILE "06 Perry Como - Blue Room.wav" WAVE INDEX 01 00:00:00FILE "07 Brenda Lee - Break It To Me Gently.wav" WAVE TRACK 07 AUDIO TITLE "Break It To Me Gently" PERFORMER "Brenda Lee" ISRC USCK30803109 INDEX 01 00:00:00FILE "08 The Tornadoes - Telstar.wav" WAVE TRACK 08 AUDIO TITLE "Telstar" PERFORMER "The Tornadoes" ISRC USCK30803112 INDEX 01 00:00:00 TRACK 09 AUDIO TITLE "Let's Twist Again" PERFORMER "Chubby Checker" ISRC USCK30803113 INDEX 00 03:17:64FILE "09 Chubby Checker - Let's Twist Again.wav" WAVE INDEX 01 00:00:00FILE "10 Helene Smith - Pot Can't Talk About The Kettle.wav" WAVE TRACK 10 AUDIO TITLE "Pot Can't Talk About The Kettle" PERFORMER "Helene Smith" ISRC USCK30803114 INDEX 01 00:00:00 TRACK 11 AUDIO TITLE "Crooked Woman" PERFORMER "Edd Henry" ISRC USCK30803116 INDEX 00 03:04:14FILE "11 Edd Henry - Crooked Woman.wav" WAVE INDEX 01 00:00:00 TRACK 12 AUDIO TITLE "A Beautiful Mine (retro remix)" PERFORMER "Jim Jacobsen" ISRC USCK30803117 INDEX 00 02:52:34FILE "12 Jim Jacobsen - A Beautiful Mine (retro remix).wav" WAVE INDEX 01 00:00:00



Трекер:  [ 11-Янв-2011 14:41 ]

  

Скачать .torrent

Размер .torrent файла 19 KB


Размер: 416 MB
Хэш (hash) релиза: 55f1ad7ec9e2852e7c0bc5bd164ca6948665b3f4

Торренты, похожие на Безумцы Mad Men: Vol. 1 & 2 скачать торрент

Форум Название Автор Размер S L Добавлен
Саундтреки к фильмам и мультфильмам (mp3) ·· (Soundtrack) Безумцы / Mad Men Vol 1 & 2 - 2008, 2009, MP3 (tracks), 320 kbps Galfimbul 176167311168 MB 0 0 1292265822

21:43

13-Дек-10

bot

Топик был перенесен в форум Саундтреки к фильмам и мультфильмам (lossless)

Перенес AqvaGen

Хотите добавить комментарий к записи скачать торрент Безумцы Mad Men: Vol. 1 & 2

!Обратная связь