Скачать через торрент музыку How To Train Your Dragon Как приручить дракона бесплатно без регистрации torrent

Если у вас наблюдаются проблемы со скриншотами, переходом по ссылками, скачиванием торрентов - проблемы в блокировщике рекламы AdBlock. #хорошегоДня!


Статистика раздачи
Размер:  413 MB   |    Зарегистрирован:  6 лет 2 месяца   |    .torrent скачан:  45 раз   |   
Раздают:  1  
   
Загрузка...
 
Автор Сообщение

Galfimbul

avatar Galfimbul


Score by John Powell

Жанр: Score
Год выпуска диска: 2010
Производитель диска: США
Аудио кодек: FLAC
Тип рипа: tracks + .cue
Битрейт аудио: lossless
Продолжительность: 71:59
Источник: what.cd
Треклист:

01. This Is Berk (4:10)
02. Dragon Battle (1:54)
03. The Downed Dragon (4:16)
04. Dragon Training (3:10)
05. Wounded (1:25)
06. The Dragon Book (2:22)
07. Focus, Hiccup! (2:05)
08. Forbidden Friendship (4:10)
09. New Tail (2:47)
10. See You Tomorrow (3:53)
11. Test Drive (2:36)
12. Not So Fireproof (1:12)
13. This Time For Sure (0:43)
14. Astrid Goes For A Spin (0:43)
15. Romantic Flight (1:56)
16. Dragon's Den (2:29)
17. The Cove (1:10)
18. The Kill Ring (4:28)
19. Ready The Ships (5:13)
20. Battling The Green Death (6:18)
21. Counter Attack (3:05)
22. Where's Hiccup? (2:43)
23. Coming Back Around (2:51)
24. Sticks & Stones (performed by Jonsi) (4:17)
25. The Vikings Have Their Tea (2:03)
 
Exact Audio Copy V0.99 prebeta 5 from 4. May 2009

EAC extraction logfile from 16. May 2010, 22:12

Various / How to Train Your Dragon (Music from the Motion Picture)

Used drive : HL-DT-STDVD-RAM GH22NS30 Adapter: 3 ID: 0

Read mode : SecureUtilize accurate stream : YesDefeat audio cache : YesMake use of C2 pointers : No

Read offset correction : 102Overread into Lead-In and Lead-Out : NoFill up missing offset samples with silence : YesDelete leading and trailing silent blocks : NoNull samples used in CRC calculations : YesUsed interface : Native Win32 interface for Win NT & 2000Gap handling : Appended to previous track

Used output format : User Defined EncoderSelected bitrate : 128 kBit/sQuality : HighAdd ID3 tag : NoCommand line compressor : C:\Program Files (x86)\Exact Audio Copy\Flac\flac.exeAdditional command line options : -V -8 -T "artist=%a" -T "title=%t" -T "album=%g" -T "date=%y" -T "tracknumber=%n" -T "genre=%m" %s

TOC of the extracted CD

Track | Start | Length | Start sector | End sector --------------------------------------------------------- 1 | 0:02.67 | 4:10.20 | 217 | 18986 2 | 4:13.12 | 1:55.01 | 18987 | 27612 3 | 6:08.13 | 4:16.60 | 27613 | 46872 4 | 10:24.73 | 3:11.07 | 46873 | 61204 5 | 13:36.05 | 1:25.59 | 61205 | 67638 6 | 15:01.64 | 2:22.52 | 67639 | 78340 7 | 17:24.41 | 2:05.46 | 78341 | 87761 8 | 19:30.12 | 4:11.07 | 87762 | 106593 9 | 23:41.19 | 2:48.10 | 106594 | 119203 10 | 26:29.29 | 3:53.34 | 119204 | 136712 11 | 30:22.63 | 2:36.23 | 136713 | 148435 12 | 32:59.11 | 1:12.35 | 148436 | 153870 13 | 34:11.46 | 0:43.74 | 153871 | 157169 14 | 34:55.45 | 0:43.18 | 157170 | 160412 15 | 35:38.63 | 1:56.36 | 160413 | 169148 16 | 37:35.24 | 2:29.22 | 169149 | 180345 17 | 40:04.46 | 1:10.73 | 180346 | 185668 18 | 41:15.44 | 4:29.11 | 185669 | 205854 19 | 45:44.55 | 5:14.13 | 205855 | 229417 20 | 50:58.68 | 6:18.41 | 229418 | 257808 21 | 57:17.34 | 3:05.34 | 257809 | 271717 22 | 60:22.68 | 2:44.05 | 271718 | 284022 23 | 63:06.73 | 2:51.17 | 284023 | 296864 24 | 65:58.15 | 4:17.72 | 296865 | 316211 25 | 70:16.12 | 2:03.50 | 316212 | 325486

Track 1

Filename C:\Users\Michael\Music\Various\How to Train Your Dragon (Music from the Motion Picture)\01 - This is Berk.wav

Pre-gap length 0:00:04.89

Peak level 98.6 % Track quality 100.0 % Test CRC E9D28CAF Copy CRC E9D28CAF Cannot be verified as accurate (confidence 1) [CD44EECF], AccurateRip returned [D3C6C25F] Copy OK

Track 2

Filename C:\Users\Michael\Music\Various\How to Train Your Dragon (Music from the Motion Picture)\02 - Dragon Battle.wav

Pre-gap length 1:05:45.30

Peak level 95.4 % Track quality 100.0 % Test CRC FFDAE1A4 Copy CRC FFDAE1A4 Cannot be verified as accurate (confidence 1) [20171E72], AccurateRip returned [EF23C26F] Copy OK

Track 3

Filename C:\Users\Michael\Music\Various\How to Train Your Dragon (Music from the Motion Picture)\03 - The Downed Dragon.wav

Pre-gap length 1:05:45.64

Peak level 98.5 % Track quality 100.0 % Test CRC 0EF03436 Copy CRC 0EF03436 Cannot be verified as accurate (confidence 1) [15D582CA], AccurateRip returned [EB986406] Copy OK

Track 4

Filename C:\Users\Michael\Music\Various\How to Train Your Dragon (Music from the Motion Picture)\04 - Dragon Training.wav

Pre-gap length 1:05:46.45

Peak level 95.4 % Track quality 100.0 % Test CRC EDC16598 Copy CRC EDC16598 Cannot be verified as accurate (confidence 1) [16430084], AccurateRip returned [EF28B6AE] Copy OK

Track 5

Filename C:\Users\Michael\Music\Various\How to Train Your Dragon (Music from the Motion Picture)\05 - Wounded.wav

Pre-gap length 0:09:23.28

Peak level 95.4 % Track quality 100.0 % Test CRC 418CFEEA Copy CRC 418CFEEA Cannot be verified as accurate (confidence 1) [12638850], AccurateRip returned [56A10BA3] Copy OK

Track 6

Filename C:\Users\Michael\Music\Various\How to Train Your Dragon (Music from the Motion Picture)\06 - The Dragon Book.wav

Pre-gap length 0:10:48.89

Peak level 98.7 % Track quality 100.0 % Test CRC 778DB42E Copy CRC 778DB42E Cannot be verified as accurate (confidence 1) [C7BECF5D], AccurateRip returned [FA3591D0] Copy OK

Track 7

Filename C:\Users\Michael\Music\Various\How to Train Your Dragon (Music from the Motion Picture)\07 - Focus, Hiccup!.wav

Pre-gap length 1:05:46.30

Peak level 95.4 % Track quality 100.0 % Test CRC FF346E76 Copy CRC FF346E76 Cannot be verified as accurate (confidence 1) [53EE1B68], AccurateRip returned [C3AEEB10] Copy OK

Track 8

Filename C:\Users\Michael\Music\Various\How to Train Your Dragon (Music from the Motion Picture)\08 - Forbidden Friendship.wav

Pre-gap length 1:05:46.30

Peak level 97.8 % Track quality 100.0 % Test CRC 1C0B1398 Copy CRC 1C0B1398 Cannot be verified as accurate (confidence 1) [CCBA99D1], AccurateRip returned [309D81A2] Copy OK

Track 9

Filename C:\Users\Michael\Music\Various\How to Train Your Dragon (Music from the Motion Picture)\09 - New Tail.wav

Pre-gap length 1:05:46.58

Peak level 94.8 % Track quality 100.0 % Test CRC D28ED519 Copy CRC D28ED519 Cannot be verified as accurate (confidence 1) [7BB99BF6], AccurateRip returned [E0DD0AC6] Copy OK

Track 10

Filename C:\Users\Michael\Music\Various\How to Train Your Dragon (Music from the Motion Picture)\10 - See You Tomorrow.wav

Pre-gap length 1:05:46.38

Peak level 94.5 % Track quality 99.9 % Test CRC 308CC9E6 Copy CRC 308CC9E6 Cannot be verified as accurate (confidence 1) [6E8A81E7], AccurateRip returned [2C12BBE0] Copy OK

Track 11

Filename C:\Users\Michael\Music\Various\How to Train Your Dragon (Music from the Motion Picture)\11 - Test Drive.wav

Pre-gap length 0:26:09.88

Peak level 95.4 % Track quality 100.0 % Test CRC EB37FD45 Copy CRC EB37FD45 Cannot be verified as accurate (confidence 1) [A77F1CBB], AccurateRip returned [CBE683A5] Copy OK

Track 12

Filename C:\Users\Michael\Music\Various\How to Train Your Dragon (Music from the Motion Picture)\12 - Not So Fireproof.wav

Pre-gap length 1:05:46.30

Peak level 78.6 % Track quality 100.0 % Test CRC B4038368 Copy CRC B4038368 Cannot be verified as accurate (confidence 1) [4A7C36A9], AccurateRip returned [32C09FD3] Copy OK

Track 13

Filename C:\Users\Michael\Music\Various\How to Train Your Dragon (Music from the Motion Picture)\13 - This Time for Sure.wav

Pre-gap length 0:29:58.85

Peak level 95.4 % Track quality 100.0 % Test CRC 130C4D11 Copy CRC 130C4D11 Cannot be verified as accurate (confidence 1) [BBC64FA5], AccurateRip returned [268E25E5] Copy OK

Track 14

Filename C:\Users\Michael\Music\Various\How to Train Your Dragon (Music from the Motion Picture)\14 - Astrid Goes for a Spin.wav

Pre-gap length 1:05:45.20

Peak level 95.4 % Track quality 100.0 % Test CRC 32CD854D Copy CRC 32CD854D Cannot be verified as accurate (confidence 1) [9CDF2DEB], AccurateRip returned [D16E1843] Copy OK

Track 15

Filename C:\Users\Michael\Music\Various\How to Train Your Dragon (Music from the Motion Picture)\15 - Romantic Flight.wav

Pre-gap length 1:05:45.30

Peak level 95.4 % Track quality 100.0 % Test CRC 464EC52C Copy CRC 464EC52C Cannot be verified as accurate (confidence 1) [F7E786C9], AccurateRip returned [2472F2BB] Copy OK

Track 16

Filename C:\Users\Michael\Music\Various\How to Train Your Dragon (Music from the Motion Picture)\16 - Dragon's Den.wav

Pre-gap length 1:05:41.33

Peak level 95.4 % Track quality 100.0 % Test CRC A52F0D3B Copy CRC A52F0D3B Cannot be verified as accurate (confidence 1) [A89E42E3], AccurateRip returned [18C33424] Copy OK

Track 17

Filename C:\Users\Michael\Music\Various\How to Train Your Dragon (Music from the Motion Picture)\17 - The Cove.wav

Pre-gap length 1:05:41.42

Peak level 53.3 % Track quality 100.0 % Test CRC 36AAC828 Copy CRC 36AAC828 Cannot be verified as accurate (confidence 1) [1959123E], AccurateRip returned [36FAF89C] Copy OK

Track 18

Filename C:\Users\Michael\Music\Various\How to Train Your Dragon (Music from the Motion Picture)\18 - The Kill Ring.wav

Pre-gap length 0:37:02.82

Peak level 95.5 % Track quality 100.0 % Test CRC 82C95FB4 Copy CRC 82C95FB4 Cannot be verified as accurate (confidence 1) [03A90A82], AccurateRip returned [DEEC3586] Copy OK

Track 19

Filename C:\Users\Michael\Music\Various\How to Train Your Dragon (Music from the Motion Picture)\19 - Ready the Ships.wav

Pre-gap length 1:05:41.32

Peak level 97.8 % Track quality 100.0 % Test CRC 11A9F12E Copy CRC 11A9F12E Cannot be verified as accurate (confidence 1) [073FCC76], AccurateRip returned [D482A2F7] Copy OK

Track 20

Filename C:\Users\Michael\Music\Various\How to Train Your Dragon (Music from the Motion Picture)\20 - Battling the Green Death.wav

Pre-gap length 1:05:41.09

Peak level 96.8 % Track quality 99.9 % Test CRC 41D71446 Copy CRC 41D71446 Cannot be verified as accurate (confidence 1) [5CBC32C5], AccurateRip returned [867ECB40] Copy OK

Track 21

Filename C:\Users\Michael\Music\Various\How to Train Your Dragon (Music from the Motion Picture)\21 - Counter Attack.wav

Pre-gap length 1:07:16.30

Peak level 95.4 % Track quality 100.0 % Test CRC 056C1B01 Copy CRC 056C1B01 Cannot be verified as accurate (confidence 1) [1964A4D7], AccurateRip returned [CC7F5159] Copy OK

Track 22

Filename C:\Users\Michael\Music\Various\How to Train Your Dragon (Music from the Motion Picture)\22 - Where's Hiccup .wav

Pre-gap length 1:05:41.42

Peak level 95.4 % Track quality 100.0 % Test CRC 0E0485F0 Copy CRC 0E0485F0 Cannot be verified as accurate (confidence 1) [91659760], AccurateRip returned [59968E47] Copy OK

Track 23

Filename C:\Users\Michael\Music\Various\How to Train Your Dragon (Music from the Motion Picture)\23 - Coming Back Around.wav

Pre-gap length 1:05:41.41

Peak level 95.4 % Track quality 100.0 % Test CRC 5120C058 Copy CRC 5120C058 Cannot be verified as accurate (confidence 1) [493C0C58], AccurateRip returned [05D57F2E] Copy OK

Track 24

Filename C:\Users\Michael\Music\Various\How to Train Your Dragon (Music from the Motion Picture)\24 - Sticks and Stones.wav

Pre-gap length 1:06:03.06

Peak level 82.5 % Track quality 100.0 % Test CRC B33D9834 Copy CRC B33D9834 Cannot be verified as accurate (confidence 1) [9425BBC5], AccurateRip returned [87860524] Copy OK

Track 25

Filename C:\Users\Michael\Music\Various\How to Train Your Dragon (Music from the Motion Picture)\25 - The Vikings Have Their Tea.wav

Pre-gap length 1:05:57.01

Peak level 81.2 % Track quality 100.0 % Test CRC 6F933BDE Copy CRC 6F933BDE Cannot be verified as accurate (confidence 1) [55523F12], AccurateRip returned [45B4F5B8] Copy OK

No tracks could be verified as accurateYou may have a different pressing from the one(s) in the database

No errors occurred

End of status report
 
REM GENRE SoundtrackREM DATE 2010REM DISCID 6410F119REM COMMENT "ExactAudioCopy v0.99pb5"PERFORMER "John Powell"TITLE "How to Train Your Dragon (Music from the Motion Picture)"FILE "John Powell\How to Train Your Dragon (Music from the Motion Picture)\01 - This is Berk.wav" WAVE TRACK 01 AUDIO TITLE "This is Berk " PERFORMER "John Powell" PREGAP 00:02:67 INDEX 01 00:00:00FILE "John Powell\How to Train Your Dragon (Music from the Motion Picture)\02 - Dragon Battle.wav" WAVE TRACK 02 AUDIO TITLE "Dragon Battle" PERFORMER "John Powell" INDEX 01 00:00:00 TRACK 03 AUDIO TITLE "The Downed Dragon" PERFORMER "John Powell" INDEX 00 47:10:29FILE "John Powell\How to Train Your Dragon (Music from the Motion Picture)\03 - The Downed Dragon.wav" WAVE INDEX 01 00:00:00 TRACK 04 AUDIO TITLE "Dragon Training" PERFORMER "John Powell" INDEX 00 09:05:59FILE "John Powell\How to Train Your Dragon (Music from the Motion Picture)\04 - Dragon Training.wav" WAVE INDEX 01 00:00:00 TRACK 05 AUDIO TITLE "Wounded" PERFORMER "John Powell" INDEX 00 48:25:59FILE "John Powell\How to Train Your Dragon (Music from the Motion Picture)\05 - Wounded.wav" WAVE INDEX 01 00:00:00 TRACK 06 AUDIO TITLE "The Dragon Book" PERFORMER "John Powell" INDEX 00 01:38:07FILE "John Powell\How to Train Your Dragon (Music from the Motion Picture)\06 - The Dragon Book.wav" WAVE INDEX 01 00:00:00 TRACK 07 AUDIO TITLE "Focus, Hiccup!" PERFORMER "John Powell" INDEX 00 47:37:33FILE "John Powell\How to Train Your Dragon (Music from the Motion Picture)\07 - Focus, Hiccup!.wav" WAVE INDEX 01 00:00:00 TRACK 08 AUDIO TITLE "Forbidden Friendship" PERFORMER "John Powell" INDEX 00 47:20:23FILE "John Powell\How to Train Your Dragon (Music from the Motion Picture)\08 - Forbidden Friendship.wav" WAVE INDEX 01 00:00:00 TRACK 09 AUDIO TITLE "New Tail" PERFORMER "John Powell" INDEX 00 48:26:00FILE "John Powell\How to Train Your Dragon (Music from the Motion Picture)\09 - New Tail.wav" WAVE INDEX 01 00:00:00 TRACK 10 AUDIO TITLE "See You Tomorrow" PERFORMER "John Powell" INDEX 00 47:46:07FILE "John Powell\How to Train Your Dragon (Music from the Motion Picture)\10 - See You Tomorrow.wav" WAVE INDEX 01 00:00:00 TRACK 11 AUDIO TITLE "Test Drive" PERFORMER "John Powell" INDEX 00 47:14:41FILE "John Powell\How to Train Your Dragon (Music from the Motion Picture)\11 - Test Drive.wav" WAVE INDEX 01 00:00:00 TRACK 12 AUDIO TITLE "Not So Fireproof" PERFORMER "John Powell" INDEX 00 47:50:74FILE "John Powell\How to Train Your Dragon (Music from the Motion Picture)\12 - Not So Fireproof.wav" WAVE INDEX 01 00:00:00 TRACK 13 AUDIO TITLE "This Time for Sure" PERFORMER "John Powell" INDEX 00 46:27:12FILE "John Powell\How to Train Your Dragon (Music from the Motion Picture)\13 - This Time for Sure.wav" WAVE INDEX 01 00:00:00 TRACK 14 AUDIO TITLE "Astrid Goes for a Spin" PERFORMER "John Powell" INDEX 00 45:39:39FILE "John Powell\How to Train Your Dragon (Music from the Motion Picture)\14 - Astrid Goes for a Spin.wav" WAVE INDEX 01 00:00:00 TRACK 15 AUDIO TITLE "Romantic Flight" PERFORMER "John Powell" INDEX 00 45:58:70FILE "John Powell\How to Train Your Dragon (Music from the Motion Picture)\15 - Romantic Flight.wav" WAVE INDEX 01 00:00:00 TRACK 16 AUDIO TITLE "Dragon's Den" PERFORMER "John Powell" INDEX 00 47:16:06FILE "John Powell\How to Train Your Dragon (Music from the Motion Picture)\16 - Dragon's Den.wav" WAVE INDEX 01 00:00:00 TRACK 17 AUDIO TITLE "The Cove" PERFORMER "John Powell" INDEX 00 47:48:70FILE "John Powell\How to Train Your Dragon (Music from the Motion Picture)\17 - The Cove.wav" WAVE INDEX 01 00:00:00 TRACK 18 AUDIO TITLE "The Kill Ring" PERFORMER "John Powell" INDEX 00 75:09:56FILE "John Powell\How to Train Your Dragon (Music from the Motion Picture)\18 - The Kill Ring.wav" WAVE INDEX 01 00:00:00 TRACK 19 AUDIO TITLE "Ready the Ships" PERFORMER "John Powell" INDEX 00 73:58:58FILE "John Powell\How to Train Your Dragon (Music from the Motion Picture)\19 - Ready the Ships.wav" WAVE INDEX 01 00:00:00 TRACK 20 AUDIO TITLE "Battling the Green Death" PERFORMER "John Powell" INDEX 00 69:29:47FILE "John Powell\How to Train Your Dragon (Music from the Motion Picture)\20 - Battling the Green Death.wav" WAVE INDEX 01 00:00:00 TRACK 21 AUDIO TITLE "Counter Attack" PERFORMER "John Powell" INDEX 00 64:15:49FILE "John Powell\How to Train Your Dragon (Music from the Motion Picture)\21 - Counter Attack.wav" WAVE INDEX 01 00:00:00 TRACK 22 AUDIO TITLE "Where's Hiccup?" PERFORMER "John Powell" INDEX 00 57:57:08FILE "John Powell\How to Train Your Dragon (Music from the Motion Picture)\22 - Where's Hiccup .wav" WAVE INDEX 01 00:00:00 TRACK 23 AUDIO TITLE "Coming Back Around" PERFORMER "John Powell" INDEX 00 54:51:04FILE "John Powell\How to Train Your Dragon (Music from the Motion Picture)\23 - Coming Back Around.wav" WAVE INDEX 01 00:00:00 TRACK 24 AUDIO TITLE "Sticks & Stones" PERFORMER "Jуnsi" INDEX 00 48:10:60FILE "John Powell\How to Train Your Dragon (Music from the Motion Picture)\24 - Sticks & Stones.wav" WAVE INDEX 01 00:00:00 TRACK 25 AUDIO TITLE "The Vikings Have Their Tea" PERFORMER "John Powell" INDEX 00 49:37:52FILE "John Powell\How to Train Your Dragon (Music from the Motion Picture)\25 - The Vikings Have Their Tea.wav" WAVE INDEX 01 00:00:00
 
REM GENRE SoundtrackREM DATE 2010REM DISCID 6410F119REM COMMENT "ExactAudioCopy v0.99pb5"PERFORMER "John Powell"TITLE "How to Train Your Dragon (Music from the Motion Picture)"FILE "01 - This is Berk.wav" WAVE TRACK 01 AUDIO TITLE "This is Berk " PERFORMER "John Powell" PREGAP 00:02:67 INDEX 01 00:00:00FILE "02 - Dragon Battle.wav" WAVE TRACK 02 AUDIO TITLE "Dragon Battle" PERFORMER "John Powell" INDEX 01 00:00:00 TRACK 03 AUDIO TITLE "The Downed Dragon" PERFORMER "John Powell" INDEX 00 47:10:29FILE "03 - The Downed Dragon.wav" WAVE INDEX 01 00:00:00 TRACK 04 AUDIO TITLE "Dragon Training" PERFORMER "John Powell" INDEX 00 09:05:59FILE "04 - Dragon Training.wav" WAVE INDEX 01 00:00:00 TRACK 05 AUDIO TITLE "Wounded" PERFORMER "John Powell" INDEX 00 48:25:59FILE "05 - Wounded.wav" WAVE INDEX 01 00:00:00 TRACK 06 AUDIO TITLE "The Dragon Book" PERFORMER "John Powell" INDEX 00 01:38:07FILE "06 - The Dragon Book.wav" WAVE INDEX 01 00:00:00 TRACK 07 AUDIO TITLE "Focus, Hiccup!" PERFORMER "John Powell" INDEX 00 47:37:33FILE "07 - Focus, Hiccup!.wav" WAVE INDEX 01 00:00:00 TRACK 08 AUDIO TITLE "Forbidden Friendship" PERFORMER "John Powell" INDEX 00 47:20:23FILE "08 - Forbidden Friendship.wav" WAVE INDEX 01 00:00:00 TRACK 09 AUDIO TITLE "New Tail" PERFORMER "John Powell" INDEX 00 48:26:00FILE "09 - New Tail.wav" WAVE INDEX 01 00:00:00 TRACK 10 AUDIO TITLE "See You Tomorrow" PERFORMER "John Powell" INDEX 00 47:46:07FILE "10 - See You Tomorrow.wav" WAVE INDEX 01 00:00:00 TRACK 11 AUDIO TITLE "Test Drive" PERFORMER "John Powell" INDEX 00 47:14:41FILE "11 - Test Drive.wav" WAVE INDEX 01 00:00:00 TRACK 12 AUDIO TITLE "Not So Fireproof" PERFORMER "John Powell" INDEX 00 47:50:74FILE "12 - Not So Fireproof.wav" WAVE INDEX 01 00:00:00 TRACK 13 AUDIO TITLE "This Time for Sure" PERFORMER "John Powell" INDEX 00 46:27:12FILE "13 - This Time for Sure.wav" WAVE INDEX 01 00:00:00 TRACK 14 AUDIO TITLE "Astrid Goes for a Spin" PERFORMER "John Powell" INDEX 00 45:39:39FILE "14 - Astrid Goes for a Spin.wav" WAVE INDEX 01 00:00:00 TRACK 15 AUDIO TITLE "Romantic Flight" PERFORMER "John Powell" INDEX 00 45:58:70FILE "15 - Romantic Flight.wav" WAVE INDEX 01 00:00:00 TRACK 16 AUDIO TITLE "Dragon's Den" PERFORMER "John Powell" INDEX 00 47:16:06FILE "16 - Dragon's Den.wav" WAVE INDEX 01 00:00:00 TRACK 17 AUDIO TITLE "The Cove" PERFORMER "John Powell" INDEX 00 47:48:70FILE "17 - The Cove.wav" WAVE INDEX 01 00:00:00 TRACK 18 AUDIO TITLE "The Kill Ring" PERFORMER "John Powell" INDEX 00 75:09:56FILE "18 - The Kill Ring.wav" WAVE INDEX 01 00:00:00 TRACK 19 AUDIO TITLE "Ready the Ships" PERFORMER "John Powell" INDEX 00 73:58:58FILE "19 - Ready the Ships.wav" WAVE INDEX 01 00:00:00 TRACK 20 AUDIO TITLE "Battling the Green Death" PERFORMER "John Powell" INDEX 00 69:29:47FILE "20 - Battling the Green Death.wav" WAVE INDEX 01 00:00:00 TRACK 21 AUDIO TITLE "Counter Attack" PERFORMER "John Powell" INDEX 00 64:15:49FILE "21 - Counter Attack.wav" WAVE INDEX 01 00:00:00 TRACK 22 AUDIO TITLE "Where's Hiccup?" PERFORMER "John Powell" INDEX 00 57:57:08FILE "22 - Where's Hiccup .wav" WAVE INDEX 01 00:00:00 TRACK 23 AUDIO TITLE "Coming Back Around" PERFORMER "John Powell" INDEX 00 54:51:04FILE "23 - Coming Back Around.wav" WAVE INDEX 01 00:00:00 TRACK 24 AUDIO TITLE "Sticks & Stones" PERFORMER "Jуnsi" INDEX 00 48:10:60FILE "24 - Sticks & Stones.wav" WAVE INDEX 01 00:00:00 TRACK 25 AUDIO TITLE "The Vikings Have Their Tea" PERFORMER "John Powell" INDEX 00 49:37:52FILE "25 - The Vikings Have Their Tea.wav" WAVE INDEX 01 00:00:00


Трекер:  [ 07-Июл-2011 22:28 ]

  

Скачать .torrent

Размер .torrent файла 18 KB


Размер: 413 MB
Хэш (hash) релиза: 461ffa95406339f39bf553873efd0a22886a2e88

Торренты, похожие на How To Train Your Dragon Как приручить дракона скачать торрент

Форум Название Автор Размер S L Добавлен
Саундтреки к фильмам и мультфильмам (mp3) ·· (Score) Как Приручить Дракона 2 / How To Train Your Dragon 2 (How To Train Your Dragon 2 Expanded FYC) (John Powell) - 2014, MP3, 320 kbps Galfimbul 188711868180 MB 0 0 1478388650

02:30

6-Ноя-16

Саундтреки к фильмам и мультфильмам (mp3) ·· (Score) Как Приручить Дракона 2 / How To Train Your Dragon 2 (How To Train Your Dragon 2 Expanded FYC) (John Powell) - 2014, MP3, 320 kbps Galfimbul 188711868180 MB 0 0 1478383634

01:07

6-Ноя-16

Саундтреки ·· (Score) Как приручить дракона / How to Train Your Dragon (For Your Consideration Best Original Score) [2 CD] (by John Powell) - 2010, FLAC (tracks+.cue), lossless _N_ 385277062367 MB 0 0 1336133580

15:13

4-Май-12

Саундтреки к фильмам и мультфильмам (mp3) ·· (Score) Как Приручить Дракона 2 / How To Train Your Dragon 2 (Expanded FYC) (John Powell) - 2014, MP3, 320 kbps Galfimbul 188711868180 MB 0 0 1478756099

08:34

10-Ноя-16

Саундтреки к фильмам и мультфильмам (mp3) ·· (Soundtrack) Как Приручить Дракона 2 / How to Train Your Dragon 2 (Where No One Goes (Film Version)) (John Powell & Jónsi) - 2014, M4A, 256 kbps Galfimbul 3763263636 MB 0 0 1470393395

13:36

5-Авг-16

Саундтреки к фильмам и мультфильмам (lossless) ·· (Soundtrack) Как Приручить Дракона 2 / How to Train Your Dragon 2 (Where No One Goes (Film Version)) (John Powell & Jónsi) - 2014, FLAC (tracks), lossless Galfimbul 4748163845 MB 0 0 1470347261

00:47

5-Авг-16

Саундтреки к фильмам и мультфильмам (mp3) ·· (Score) Как приручить дракона / How To Train Your Dragon (by John Powell) - 2010, MP3, 320 kbps Phoenix 174091145166 MB 0 0 1292265024

21:30

13-Дек-10

Еще никто не оставлял запись к записи скачать торрент How To Train Your Dragon Как приручить дракона . Будь первым!

!Обратная связь